Странный ангел / Strange Angel / Сезон 2 / Серии 1-7 из 10 (Дэвид Лоури, Нельсон МакКормик, Бен Уи) [2019 г., Драма, мистика, научная фантастика, WEB-DL 1080p] MVO (LostFilm) + Original Eng

Reply to topic

DL-List and Torrent activity
Size:  18.02 GB   |    Registered:  3 months 22 days   |    Completed:  0 times

Seeder not seen: 2 months 4 days

 
 
 
 
Author Message

.:Mercury:. ®

Gender: Male

Longevity: 1 year 9 months

Posts: 3586

Карма: 31947 [+]

Наличие запрета:

[Profile] [PM]

Post 16-Jun-2019 12:04

[Quote]

Странный ангел / Strange Angel- -Год выпуска: 2019
Страна: США
Жанр: Драма, мистика, научная фантастика
Продолжительность: ~00:55:00
Перевод: Профессиональный (многоголосый, закадровый) LostFilm--Режиссер: Дэвид Лоури, Нельсон МакКормик, Бен Уи--В ролях: Питер Марк Кендалл, Джек Рейнор, Майкл Гэстон, Дэн Донохью, Рэнди Оглсби, Фил Абрамс, Курт Ёла, Роб Забрески, Коллин Фой--Описание: Джек Парсонс — знаменитый инженер, химик и оккультист. В 1930-х молодой человек, с детства увлекавшийся реактивным движением, начал работать уборщиком на химическом заводе в Лос-Анджелесе. Вскоре благодаря врожденному таланту и амбициям Парсонс смог положить начало американскому ракетостроению и стал одним из ключевых основателей Лаборатории реактивного движения. Однако интересы Парсона не ограничивались химией. В начале 1940-х, после кратковременного периода увлечения марксизмом, Парсонс заинтересовался учениями английского оккультиста Алистера Кроули и вместе с женой Хелен присоединился к калифорнийскому отделению ордена восточных тамплиеров.--Качество: WEB-DL 1080p
Формат: MKV
Видео кодек: H.264
Аудио кодек: AC3
Видео: MPEG4 Video (H264) 1920x1080 23.976fps 6 800 kb/s
Аудио: Dolby AC3 48000Hz stereo 384kbps 2ch | Rus, Eng
General
Unique ID : 188797082251336244132687499964404902791 (0x8E08FED35374A9E5957279530182AB87)
Complete name : F:\Restored\Strange.Angel.S02E01.1080p.rus.LostFilm.TV.mkv
Format : Matroska
Format version : Version 4
File size : 2.61 GiB
Duration : 49 min 29 s
Overall bit rate : 7 562 kb/s
Encoded date : UTC 2019-06-15 18:34:26
Writing application : mkvmerge v7.7.0 ('Six Voices') 64bit built on Feb 28 2015 23:39:33
Writing library : libebml v1.3.1 + libmatroska v1.4.2
Video
ID : 1
Format : AVC
Format/Info : Advanced Video Codec
Format profile : High@L4.1
Format settings : CABAC / 4 Ref Frames
Format settings, CABAC : Yes
Format settings, Reference fra : 4 frames
Codec ID : V_MPEG4/ISO/AVC
Duration : 49 min 29 s
Bit rate : 6 800 kb/s
Width : 1 920 pixels
Height : 1 080 pixels
Display aspect ratio : 16:9
Frame rate mode : Constant
Frame rate : 24.000 FPS
Color space : YUV
Chroma subsampling : 4:2:0
Bit depth : 8 bits
Scan type : Progressive
Bits/(Pixel*Frame) : 0.137
Stream size : 2.35 GiB (90%)
Writing library : x264 core 112 r1834 a51816a
Encoding settings : cabac=1 / ref=4 / deblock=1:-3:-2 / analyse=0x3:0x113 / me=hex / subme=7 / psy=1 / psy_rd=1.00:0.00 / mixed_ref=1 / me_range=16 / chroma_me=1 / trellis=1 / 8x8dct=1 / cqm=0 / deadzone=21,11 / fast_pskip=1 / chroma_qp_offset=-2 / threads=6 / sliced_threads=0 / nr=0 / decimate=1 / interlaced=0 / constrained_intra=0 / bframes=5 / b_pyramid=2 / b_adapt=1 / b_bias=0 / direct=1 / weightb=1 / open_gop=0 / weightp=2 / keyint=250 / keyint_min=25 / scenecut=40 / intra_refresh=0 / rc_lookahead=40 / rc=2pass / mbtree=1 / bitrate=6800 / ratetol=1.0 / qcomp=0.60 / qpmin=0 / qpmax=51 / qpstep=4 / cplxblur=20.0 / qblur=0.5 / vbv_maxrate=10000 / vbv_bufsize=256000 / ip_ratio=1.40 / aq=1:1.00 / nal_hrd=none
Default : Yes
Forced : No
Audio #1
ID : 2
Format : AC-3
Format/Info : Audio Coding 3
Commercial name : Dolby Digital
Codec ID : A_AC3
Duration : 49 min 28 s
Bit rate mode : Constant
Bit rate : 384 kb/s
Channel(s) : 2 channels
Channel layout : L R
Sampling rate : 48.0 kHz
Frame rate : 31.250 FPS (1536 SPF)
Bit depth : 16 bits
Compression mode : Lossy
Stream size : 136 MiB (5%)
Service kind : Complete Main
Default : Yes
Forced : No
Audio #2
ID : 3
Format : AC-3
Format/Info : Audio Coding 3
Commercial name : Dolby Digital
Codec ID : A_AC3
Duration : 49 min 29 s
Bit rate mode : Constant
Bit rate : 384 kb/s
Channel(s) : 2 channels
Channel layout : L R
Sampling rate : 48.0 kHz
Frame rate : 31.250 FPS (1536 SPF)
Bit depth : 16 bits
Compression mode : Lossy
Stream size : 136 MiB (5%)
Service kind : Complete Main
Default : No
Forced : No

Release was prepared by RG Serials



If your ratio falls below 0.3, you will not be able to download Torrents! More about the rating.

[toptorrent.pw].t6026.torrent
Torrent: Registered [ 2019-07-28 07:05 ] · C32C7185FED55860263B2113B1A7F978263B99B9

Download .torrent

Download

91 KB

Status: T temporary
Completed: 0 times
Size: 18.02 GB
Rate: 
(Vote: 1)
Has thanked: 1  Thanks   (List)
terms.php
Display posts:    
Reply to topic

Current time is: 19-Nov 11:33

All times are UTC + 5



You cannot post new topics in this forum
You cannot reply to topics in this forum
You cannot edit your posts in this forum
You cannot delete your posts in this forum
You cannot vote in polls in this forum
You cannot attach files in this forum
You can download files in this forum