Чужой: Антология / Alien 40th Anniversary Short Films / Сезон: 1 / Серии: 1-6 из 6 (Крис Рединг, Келси Тейлор, Эйдан Брезоник, Кейли, Сэм Спирам, Бен Хаудшелл) [2019, ужасы, фантастика, короткометражка, WEBRip 1080p] (MVO) LostFilm + Origina

Reply to topic

DL-List and Torrent activity
Size:  3.33 GB   |    Registered:  4 months 24 days   |    Completed:  0 times
Seeders:  5  [  0 KB/s  ]   Show peers in full details
   
 
Author Message

.:Mercury:. ®

Gender: Male

Longevity: 1 year 9 months

Posts: 3585

Карма: 31947 [+]

Наличие запрета:

[Profile] [PM]

Post 23-Jun-2019 10:02

[Quote]

Чужой: Антология / Alien 40th Anniversary Short Films--
- -
Год выпуска: 2019
Страна: США
Жанр: ужасы, фантастика, короткометражка
Продолжительность: ~ 00:10:00
Перевод: Профессиональный (многоголосый) LostFilm-Режиссер: Крис Рединг, Келси Тейлор, Эйдан Брезоник, Кейли, Сэм Спирам, Бен Хаудшелл,Ной Миллер-В ролях: Агнес Олех, Джеймс С. Бёрнс, Эмброуз Гарднер, Бола Омодара, Тим Хоу, Тереза Вонг, Александр Уорд и др..-Описание: "Чужой" - это франшиза фильмов в жанрах научной фантастики и хоррора, рассказывающая о борьбе человечества с разумными и опасными инопланетянами ксеноморфами. Вселенная началась с одноименного фильма режиссера Ридли Скотта в 1979 году и получила развитие в сиквелах Чужие (режиссер Джеймс Кэмерон), Чужой 3 (режиссер Дэвид Финчер) и Чужой: Воскрешение (режиссер Жан-Пьер Жене). Позднее появились приквелы, Прометей и Чужой: Завет, рассказывающие об андроиде Дэвиде и Инженерах, создавших заглавных существ. Чтобы связать события этих двух лент, Ридли Скотт одновременно выпустил восемь короткометражек. В этом году в честь 40-летия франшизы вселенная пополнилась еще шестью мини-фильмами молодых режиссеров, победивших на специальном конкурсе под крылом краудсорсинговой компании Tongal. Честь расширить вселенную Чужого досталась Крису Редингу, Келси Тейлор, Эйдану Брезонику, Кейли и Сэму Спирам, Бену Хаудшеллу и Ною Миллеру.-Качество: WEBRip 1080p
Формат: MKV
Видео Кодек: H264
Аудио Кодек: AC3
Видео: MPEG4 Video (H264) 1920x1080 23.976fps 6 800 kb/s
Аудио: Dolby AC3 48000Hz stereo 384kbps 2ch | Rus, Eng
-
General
Unique ID : 183553856989519541494707258721035029369 (0x8A172FDC81459D5AA11E3F4169AF0B79)
Complete name : F:\Restored\Чужой (Анталогия) WEBRip 1080p. LostFilm\Alien.Containment.1080p.rus.LostFilm.TV.mkv
Format : Matroska
Format version : Version 4
File size : 533 MiB
Duration : 9 min 50 s
Overall bit rate : 7 569 kb/s
Encoded date : UTC 2019-06-22 12:36:22
Writing application : mkvmerge v7.7.0 ('Six Voices') 64bit built on Feb 28 2015 23:39:33
Writing library : libebml v1.3.1 + libmatroska v1.4.2
Video
ID : 1
Format : AVC
Format/Info : Advanced Video Codec
Format profile : High@L4.1
Format settings : CABAC / 4 Ref Frames
Format settings, CABAC : Yes
Format settings, Reference fra : 4 frames
Codec ID : V_MPEG4/ISO/AVC
Duration : 9 min 50 s
Bit rate : 6 800 kb/s
Width : 1 920 pixels
Height : 1 080 pixels
Display aspect ratio : 16:9
Frame rate mode : Constant
Frame rate : 23.976 (24000/1001) FPS
Original frame rate : 23.976 (23976/1000) FPS
Color space : YUV
Chroma subsampling : 4:2:0
Bit depth : 8 bits
Scan type : Progressive
Bits/(Pixel*Frame) : 0.137
Stream size : 478 MiB (90%)
Writing library : x264 core 112 r1834 a51816a
Encoding settings : cabac=1 / ref=4 / deblock=1:-3:-2 / analyse=0x3:0x113 / me=hex / subme=7 / psy=1 / psy_rd=1.00:0.00 / mixed_ref=1 / me_range=16 / chroma_me=1 / trellis=1 / 8x8dct=1 / cqm=0 / deadzone=21,11 / fast_pskip=1 / chroma_qp_offset=-2 / threads=6 / sliced_threads=0 / nr=0 / decimate=1 / interlaced=0 / constrained_intra=0 / bframes=5 / b_pyramid=2 / b_adapt=1 / b_bias=0 / direct=1 / weightb=1 / open_gop=0 / weightp=2 / keyint=250 / keyint_min=25 / scenecut=40 / intra_refresh=0 / rc_lookahead=40 / rc=2pass / mbtree=1 / bitrate=6800 / ratetol=1.0 / qcomp=0.60 / qpmin=0 / qpmax=51 / qpstep=4 / cplxblur=20.0 / qblur=0.5 / vbv_maxrate=10000 / vbv_bufsize=256000 / ip_ratio=1.40 / aq=1:1.00 / nal_hrd=none
Default : Yes
Forced : No
Audio #1
ID : 2
Format : AC-3
Format/Info : Audio Coding 3
Commercial name : Dolby Digital
Codec ID : A_AC3
Duration : 9 min 49 s
Bit rate mode : Constant
Bit rate : 384 kb/s
Channel(s) : 2 channels
Channel layout : L R
Sampling rate : 48.0 kHz
Frame rate : 31.250 FPS (1536 SPF)
Bit depth : 16 bits
Compression mode : Lossy
Stream size : 27.0 MiB (5%)
Service kind : Complete Main
Default : Yes
Forced : No
Audio #2
ID : 3
Format : AC-3
Format/Info : Audio Coding 3
Commercial name : Dolby Digital
Codec ID : A_AC3
Duration : 9 min 49 s
Bit rate mode : Constant
Bit rate : 384 kb/s
Channel(s) : 2 channels
Channel layout : L R
Sampling rate : 48.0 kHz
Frame rate : 31.250 FPS (1536 SPF)
Bit depth : 16 bits
Compression mode : Lossy
Stream size : 27.0 MiB (5%)
Service kind : Complete Main
Default : No
Forced : No

Release was prepared by RG Serials



If your ratio falls below 0.3, you will not be able to download Torrents! More about the rating.

[toptorrent.pw].t6042.torrent
Torrent: Registered [ 2019-06-23 10:02 ] · 0D1943E904E530E514AC186C58E2B45D29BEDE29

Download .torrent

Download

18 KB

Status: checked
Completed: 0 times
Size: 3.33 GB
Rate: 
(Vote: 1)
Has thanked: 1  Thanks   (List)
terms.php
Display posts:    
Reply to topic

Current time is: 17-Nov 12:27

All times are UTC + 5



You cannot post new topics in this forum
You cannot reply to topics in this forum
You cannot edit your posts in this forum
You cannot delete your posts in this forum
You cannot vote in polls in this forum
You cannot attach files in this forum
You can download files in this forum