Бросок кобры: Дилогия / G.I. Joe: The Rise of Cobra: Dilogy (Стивен Соммерс, Джон М. Чу) [2009, 2013 г., Фантастика, боевик, триллер, приключения, BDRip-AVC] DUB [Лицензия]

Reply to topic
DL-List and Torrent activity
Size:  7.73 GB   |    Registered:  16 days   |    Completed:  0 times
Seeders:  1  [  0 KB/s  ]   Show peers in full details
 
 
 
 
Author Message

_Deimos_ ®

VIP пользователь

Gender: Male

Longevity: 1 year 5 months

Posts: 374

Карма: 33000 [+]

Наличие запрета:

[Profile] [PM]

Post 05-Jul-2019 07:52

[Quote]


-- Год выпуска: 2009
Страна: США, Чехия
Жанр: Фантастика, боевик, триллер, приключения
Продолжительность: 01:58:00
Перевод: Профессиональный дублирование [Лицензия]--Режиссер: Стивен Соммерс--В ролях: Ченнинг Татум, Кристофер Экклстон, Адевале Акиннуойе-Агбадже, Грегори Фетусси, Джозеф Гордон-Левитт, Лео Ховард, Каролина Куркова, Бён Хон Ли, Сиенна Миллер, Дэвид Мюррей-- Дьюк и и Рипкорд - друзья по оружию не разлей вода. Сопровождая военный конвой, перевозящий сверхсекретное и современное оружие, они оказываются под массированной и хорошо спланированной атакой. И если бы не таинственные незнакомцы, которые помогли отбиться от врагов, друзьям неминуемо пришёл бы конец. Неизвестные вербуют Дьюка и Рипкорда, привозят на засекреченную базу отряда G.I. Joe, находящуюся в пустыне Сахара глубоко под песками, обучают новым приёмам и снабжают суперкрутым оружием. И всё это ради одной цели - вывести на чистую воду директора компании по производству оружия МакКаллена. Выяснится, что МакКаллен нанял двух профессионалов, Ану (бывшая подруга Дьюка) и Шторм Шэдоу (ещё будучи ребёнком он обучался боевым искусствам вместе с Снейк Айзом, который работает в отряде G.I. Joe) для двух целей: диверсии внутри базы J.I. Joe и проведения показательного теракта в Париже. И теперь отряду G.I. Joe нужно приложить все усилия, чтобы остановить Ану и Шторм Шэдоу.-- Качество: BDRip-AVC
Формат видео: MKV
Видео кодек: H.264, 1024x426, 23.976 fps, 3500 kb/s
Аудио кодек 1: AC3, 48.0 kHz, 6 channels, 448 kb/s (DUB) Blu-ray CEE [rus]
Аудио кодек 2: AC3, 48.0 kHz, 6 channels, 448 kb/s (AVO) А. Гаврилов [rus]
Аудио кодек 3: AC3, 48.0 kHz, 6 channels, 448 kb/s (Оригинал) [eng]
Субтитры: Русские и Английские--

Рейтинг фильма --
General
Unique ID : 175451659548944357867892720128802448150 (0x83FEC2AF96C50FAC9FE96ACC9DE86316)
Complete name : F:\Kino\Бойцы\Бросок кобры\Бросок кобры I.mkv
Format : Matroska
Format version : Version 1
File size : 3.99 GiB
Duration : 1 h 57 min
Overall bit rate : 4 847 kb/s
Encoded date : UTC 2014-12-14 07:05:14
Writing application : mkvmerge v2.4.1 ('Use Me') built on Dec 5 2008 18:30:05
Writing library : libebml v0.7.7 + libmatroska v0.8.1
Video
ID : 1
Format : AVC
Format/Info : Advanced Video Codec
Format profile : High@L4.1
Format settings, CABAC : Yes
Format settings, RefFrames : 10 frames
Codec ID : V_MPEG4/ISO/AVC
Duration : 1 h 57 min
Bit rate : 3 500 kb/s
Width : 1 024 pixels
Height : 426 pixels
Display aspect ratio : 2.40:1
Frame rate mode : Constant
Frame rate : 23.976 (24000/1001) FPS
Color space : YUV
Chroma subsampling : 4:2:0
Bit depth : 8 bits
Scan type : Progressive
Bits/(Pixel*Frame) : 0.335
Stream size : 2.81 GiB (70%)
Title : Бросок кобры (2009)
Writing library : x264 core 133 r2334 a3ac64b
Encoding settings : cabac=1 / ref=10 / deblock=1:-3:-3 / analyse=0x3:0x133 / me=umh / subme=10 / psy=1 / psy_rd=1.00:0.10 / mixed_ref=1 / me_range=48 / chroma_me=1 / trellis=2 / 8x8dct=1 / cqm=0 / deadzone=21,11 / fast_pskip=0 / chroma_qp_offset=-3 / threads=6 / lookahead_threads=1 / sliced_threads=0 / nr=0 / decimate=1 / interlaced=0 / bluray_compat=0 / constrained_intra=0 / bframes=5 / b_pyramid=2 / b_adapt=2 / b_bias=0 / direct=3 / weightb=1 / open_gop=0 / weightp=2 / keyint=240 / keyint_min=22 / scenecut=40 / intra_refresh=0 / rc_lookahead=40 / rc=2pass / mbtree=1 / bitrate=3500 / ratetol=1.0 / qcomp=0.60 / qpmin=10 / qpmax=51 / qpstep=4 / cplxblur=20.0 / qblur=0.5 / ip_ratio=1.40 / aq=1:1.00
Language : English
Default : Yes
Forced : No
Audio #1
ID : 2
Format : AC-3
Format/Info : Audio Coding 3
Format settings, Endianness : Big
Codec ID : A_AC3
Duration : 1 h 57 min
Bit rate mode : Constant
Bit rate : 448 kb/s
Channel(s) : 6 channels
Channel positions : Front: L C R, Side: L R, LFE
Sampling rate : 48.0 kHz
Frame rate : 31.250 FPS (1536 SPF)
Bit depth : 16 bits
Compression mode : Lossy
Stream size : 378 MiB (9%)
Title : AC3 (Дублированный) Blu-ray CEE
Language : Russian
Service kind : Complete Main
Default : Yes
Forced : No
Audio #2
ID : 3
Format : AC-3
Format/Info : Audio Coding 3
Format settings, Endianness : Big
Codec ID : A_AC3
Duration : 1 h 57 min
Bit rate mode : Constant
Bit rate : 448 kb/s
Channel(s) : 6 channels
Channel positions : Front: L C R, Side: L R, LFE
Sampling rate : 48.0 kHz
Frame rate : 31.250 FPS (1536 SPF)
Bit depth : 16 bits
Compression mode : Lossy
Stream size : 378 MiB (9%)
Title : AC3 (Одноголосый) А. Гаврилов
Language : Russian
Service kind : Complete Main
Default : No
Forced : No
Audio #3
ID : 4
Format : AC-3
Format/Info : Audio Coding 3
Format settings, Endianness : Big
Codec ID : A_AC3
Duration : 1 h 57 min
Bit rate mode : Constant
Bit rate : 448 kb/s
Channel(s) : 6 channels
Channel positions : Front: L C R, Side: L R, LFE
Sampling rate : 48.0 kHz
Frame rate : 31.250 FPS (1536 SPF)
Bit depth : 16 bits
Compression mode : Lossy
Stream size : 378 MiB (9%)
Title : AC3 (Оригинал)
Language : English
Service kind : Complete Main
Default : No
Forced : No
Text #1
ID : 5
Format : UTF-8
Codec ID : S_TEXT/UTF8
Codec ID/Info : UTF-8 Plain Text
Title : Русские (Форсированные)
Language : Russian
Default : Yes
Forced : No
Text #2
ID : 6
Format : UTF-8
Codec ID : S_TEXT/UTF8
Codec ID/Info : UTF-8 Plain Text
Title : Русские
Language : Russian
Default : No
Forced : No
Text #3
ID : 7
Format : UTF-8
Codec ID : S_TEXT/UTF8
Codec ID/Info : UTF-8 Plain Text
Title : Английские
Language : English
Default : No
Forced : No

-- Год выпуска: 2013
Страна: США
Жанр: Фантастика, боевик, триллер, приключения
Продолжительность: 01:50:15
Перевод: Профессиональный дублирование [Лицензия]--Режиссер: Джон М. Чу--В ролях: Дуэйн Джонсон, Эдрианн Палики, Брюс Уиллис, Рэй Парк, Бён Хон Ли, Ди Джей Котрона, Джонатан Прайс, Элоди Юнг, Ченнинг Татум, Люк Брейси, Рэй Стивенсон, Уолтон Гоггинс, Арнольд Вослу, Джозеф Маццелло, Ник Эриксон, RZA, Наим Альхерими, Рави Найду, Мэтт Джералд, Дуглас М. Гриффин, Джо Крест, Джеймс Карвилл, Райан Хансен, ДеРэй Дэвис, Нэйтан Такасигэ-- Если всё идёт хорошо, значит очень скоро что-то обязательно пойдёт не по плану... На базу отряда J.I. Joe нападают неизвестные, разнося всех и вся. Убит командир Дьюк, выжить удалось Родблоку, Флинту и Леди Джей. И пока эта троица отважных бойцов всеми возможными методами пытается выяснить кому и зачем понадобилось уничтожение G.I. Joe на другой половине земного шара творятся не менее важные и опасные дела. Снэйк Айзу и его новой помощнице Джинкс нужно поймать Шторм Шэдоу и доставить его в храм арашикаги, чтобы тот рассказал, зачем он убил в детстве своего прославленного учителя, Жестокого Мастера. Воссоединившись, вместе со Снейк Айзом и легендарным генералом в отставке Джозефом Коултоном, G.I. Joe должны раскрыть истинное лицо лже-президена США и его гнусные планы. Задача нелёгкая, но только не для G.I. Joe!-- Качество: BDRip-AVC
Формат видео: MKV
Видео кодек: H.264, 1024x426, 23.976 fps, 3500 kb/s
Аудио кодек 1: AC3, 48.0 kHz, 6 channels, 448 kb/s (DUB) Blu-ray CEE [rus]
Аудио кодек 2: AC3, 48.0 kHz, 6 channels, 448 kb/s (AVO) А. Гаврилов [rus]
Аудио кодек 3: AC3, 48.0 kHz, 6 channels, 448 kb/s (Оригинал) [eng]
Субтитры: Русские и Английские--

Рейтинг фильма --
General
Unique ID : 172332826517134836355208381205583148619 (0x81A6185868DE3EA99D47FBD3A8D2B64B)
Complete name : F:\Kino\Бойцы\Бросок кобры\Бросок кобры II.mkv
Format : Matroska
Format version : Version 1
File size : 3.73 GiB
Duration : 1 h 50 min
Overall bit rate : 4 844 kb/s
Encoded date : UTC 2014-12-14 16:24:15
Writing application : mkvmerge v2.4.1 ('Use Me') built on Dec 5 2008 18:30:05
Writing library : libebml v0.7.7 + libmatroska v0.8.1
Video
ID : 1
Format : AVC
Format/Info : Advanced Video Codec
Format profile : High@L4.1
Format settings, CABAC : Yes
Format settings, RefFrames : 10 frames
Codec ID : V_MPEG4/ISO/AVC
Duration : 1 h 50 min
Bit rate : 3 500 kb/s
Width : 1 024 pixels
Height : 426 pixels
Display aspect ratio : 2.40:1
Frame rate mode : Constant
Frame rate : 23.976 (24000/1001) FPS
Color space : YUV
Chroma subsampling : 4:2:0
Bit depth : 8 bits
Scan type : Progressive
Bits/(Pixel*Frame) : 0.335
Stream size : 2.62 GiB (70%)
Title : Бросок кобры 2: Возмездие (2013)
Writing library : x264 core 133 r2334 a3ac64b
Encoding settings : cabac=1 / ref=10 / deblock=1:-3:-3 / analyse=0x3:0x133 / me=umh / subme=10 / psy=1 / psy_rd=1.00:0.10 / mixed_ref=1 / me_range=48 / chroma_me=1 / trellis=2 / 8x8dct=1 / cqm=0 / deadzone=21,11 / fast_pskip=0 / chroma_qp_offset=-3 / threads=6 / lookahead_threads=1 / sliced_threads=0 / nr=0 / decimate=1 / interlaced=0 / bluray_compat=0 / constrained_intra=0 / bframes=5 / b_pyramid=2 / b_adapt=2 / b_bias=0 / direct=3 / weightb=1 / open_gop=0 / weightp=2 / keyint=240 / keyint_min=22 / scenecut=40 / intra_refresh=0 / rc_lookahead=40 / rc=2pass / mbtree=1 / bitrate=3500 / ratetol=1.0 / qcomp=0.60 / qpmin=10 / qpmax=51 / qpstep=4 / cplxblur=20.0 / qblur=0.5 / ip_ratio=1.40 / aq=1:1.00
Language : English
Default : Yes
Forced : No
Audio #1
ID : 2
Format : AC-3
Format/Info : Audio Coding 3
Format settings, Endianness : Big
Codec ID : A_AC3
Duration : 1 h 50 min
Bit rate mode : Constant
Bit rate : 448 kb/s
Channel(s) : 6 channels
Channel positions : Front: L C R, Side: L R, LFE
Sampling rate : 48.0 kHz
Frame rate : 31.250 FPS (1536 SPF)
Bit depth : 16 bits
Compression mode : Lossy
Stream size : 353 MiB (9%)
Title : AC3 (Дублированный) Blu-ray CEE
Language : Russian
Service kind : Complete Main
Default : Yes
Forced : No
Audio #2
ID : 3
Format : AC-3
Format/Info : Audio Coding 3
Format settings, Endianness : Big
Codec ID : A_AC3
Duration : 1 h 50 min
Bit rate mode : Constant
Bit rate : 448 kb/s
Channel(s) : 6 channels
Channel positions : Front: L C R, Side: L R, LFE
Sampling rate : 48.0 kHz
Frame rate : 31.250 FPS (1536 SPF)
Bit depth : 16 bits
Compression mode : Lossy
Stream size : 353 MiB (9%)
Title : AC3 (Одноголосый) А. Гаврилов
Language : Russian
Service kind : Complete Main
Default : No
Forced : No
Audio #3
ID : 4
Format : AC-3
Format/Info : Audio Coding 3
Format settings, Endianness : Big
Codec ID : A_AC3
Duration : 1 h 50 min
Bit rate mode : Constant
Bit rate : 448 kb/s
Channel(s) : 6 channels
Channel positions : Front: L C R, Side: L R, LFE
Sampling rate : 48.0 kHz
Frame rate : 31.250 FPS (1536 SPF)
Bit depth : 16 bits
Compression mode : Lossy
Stream size : 353 MiB (9%)
Title : AC3 (Оригинал)
Language : English
Service kind : Complete Main
Default : No
Forced : No
Text #1
ID : 5
Format : UTF-8
Codec ID : S_TEXT/UTF8
Codec ID/Info : UTF-8 Plain Text
Title : Русские (Форсированные)
Language : Russian
Default : Yes
Forced : No
Text #2
ID : 6
Format : UTF-8
Codec ID : S_TEXT/UTF8
Codec ID/Info : UTF-8 Plain Text
Title : Русские
Language : Russian
Default : No
Forced : No
Text #3
ID : 7
Format : UTF-8
Codec ID : S_TEXT/UTF8
Codec ID/Info : UTF-8 Plain Text
Title : Английские
Language : English
Default : No
Forced : No

Release was prepared by RG Cinema

If your ratio falls below 0.3, you will not be able to download Torrents! More about the rating.

[toptorrent.pw].t6054.torrent
Torrent: Registered [ 2019-07-05 07:52 ] · 368CD9AA12B6203BE667ACA2FB72EEF9776E4619

Download .torrent

Download

20 KB

Status: checked
Completed: 0 times
Size: 7.73 GB
Rate: 
(Vote: 2)
Has thanked: 2  Thanks   (List)
terms.php
Display posts:    
Reply to topic

Current time is: 21-Jul 22:43

All times are UTC + 5



You cannot post new topics in this forum
You cannot reply to topics in this forum
You cannot edit your posts in this forum
You cannot delete your posts in this forum
You cannot vote in polls in this forum
You cannot attach files in this forum
You can download files in this forum