Хеллбой / Hellboy (Нил Маршалл / Neil Marshall) [2019 г., Фэнтези, боевик, приключения, WEB-DLRip-AVC] DUB [iTunes]

Reply to topic

DL-List and Torrent activity
Size:  2.12 GB   |    Registered:  4 months 2 days   |    Completed:  1 time

Seeder not seen: 12 days

 
 
 
 
Author Message

_Deimos_ ®

VIP пользователь

Gender: Male

Longevity: 1 year 9 months

Posts: 379

Карма: 33000 [+]

Наличие запрета:

[Profile] [PM]

Post 11-Jul-2019 07:28

[Quote]


--Год выпуска: 2019
Страна: США
Жанр: Фэнтези, боевик, приключения
Продолжительность: 02:00:47
Перевод: Дублированный [iTunes]--Режиссёр: Нил Маршалл--В ролях: Дэвид Харбор, Иэн МакШейн, Милла Йовович, Марк Стэнли, Брин Глисон, Надя Керанова, Мария Тепавичарова, Ана Тобакова, Пенелопа Митчелл, Терри Рендал-- : Близится час битвы Хеллбоя с Кровавой королевой, жаждущей отомстить всему человечеству за века в заточении. Оказавшись в эпицентре столкновения миров людей и монстров, Хеллбою придется пройти через ад, чтобы предотвратить надвигающийся апокалипсис.-- Качество: WEB-DLRip-AVC
Формат видео: MKV
Видео: H.264, 1024x420, 25 fps, 1871 kb/s
Аудио 1: AC3, 48.0 kHz, 6 channels, 384 kb/s [A: iTunes [rus]
Аудио 3: AC3, 48.0 kHz, 6 channels, 384 kb/s [A: Original [eng]
Субтитры: Русские и Английские--

Рейтинг фильма --
General
Unique ID : 173502444740080499434409714847121622830 (0x82875AF9D9FB9F3EB4256EC23B4B472E)
Complete name : G:\Kino\Hellboy.2019.D.WEB-DLRip.AVC.ExKinoRay.mkv
Format : Matroska
Format version : Version 2
File size : 2.12 GiB
Duration : 1 h 55 min
Overall bit rate : 2 640 kb/s
Movie name : Hellboy 2019 from ExKinoRay
Encoded date : UTC 2019-07-09 05:18:40
Writing application : mkvmerge v5.6.0 ('Kenya Kane') built on May 27 2012 16:44:04
Writing library : libebml v1.2.3 + libmatroska v1.3.0
Video
ID : 1
Format : AVC
Format/Info : Advanced Video Codec
Format profile : High@L4.1
Format settings, CABAC : Yes
Format settings, RefFrames : 11 frames
Codec ID : V_MPEG4/ISO/AVC
Duration : 1 h 55 min
Bit rate : 1 871 kb/s
Width : 1 024 pixels
Height : 420 pixels
Display aspect ratio : 2.40:1
Frame rate mode : Constant
Frame rate : 25.000 FPS
Color space : YUV
Chroma subsampling : 4:2:0
Bit depth : 8 bits
Scan type : Progressive
Bits/(Pixel*Frame) : 0.174
Stream size : 1.46 GiB (69%)
Title : Enigma
Writing library : x264 core 152 r2851 ba24899
Encoding settings : cabac=1 / ref=11 / deblock=1:-2:-2 / analyse=0x3:0x113 / me=umh / subme=10 / psy=1 / psy_rd=1.05:0.10 / mixed_ref=1 / me_range=32 / chroma_me=1 / trellis=2 / 8x8dct=1 / cqm=0 / deadzone=21,11 / fast_pskip=0 / chroma_qp_offset=-3 / threads=12 / lookahead_threads=3 / sliced_threads=0 / nr=0 / decimate=0 / interlaced=0 / bluray_compat=0 / constrained_intra=0 / bframes=12 / b_pyramid=2 / b_adapt=2 / b_bias=0 / direct=3 / weightb=1 / open_gop=0 / weightp=2 / keyint=250 / keyint_min=25 / scenecut=40 / intra_refresh=0 / rc=2pass / mbtree=0 / bitrate=1871 / ratetol=1.0 / qcomp=0.60 / qpmin=0 / qpmax=51 / qpstep=4 / cplxblur=20.0 / qblur=0.5 / ip_ratio=1.40 / pb_ratio=1.30 / aq=1:1.00
Language : English
Default : Yes
Forced : No
Color range : Limited
Color primaries : BT.709
Transfer characteristics : BT.709
Matrix coefficients : BT.709
Audio #1
ID : 2
Format : AC-3
Format/Info : Audio Coding 3
Format settings, Endianness : Big
Codec ID : A_AC3
Duration : 1 h 55 min
Bit rate mode : Constant
Bit rate : 384 kb/s
Channel(s) : 6 channels
Channel positions : Front: L C R, Side: L R, LFE
Sampling rate : 48.0 kHz
Frame rate : 31.250 FPS (1536 SPF)
Bit depth : 16 bits
Compression mode : Lossy
Stream size : 316 MiB (15%)
Title : Dub
Language : Russian
Service kind : Complete Main
Default : Yes
Forced : No
Audio #2
ID : 3
Format : AC-3
Format/Info : Audio Coding 3
Format settings, Endianness : Big
Codec ID : A_AC3
Duration : 1 h 55 min
Bit rate mode : Constant
Bit rate : 384 kb/s
Channel(s) : 6 channels
Channel positions : Front: L C R, Side: L R, LFE
Sampling rate : 48.0 kHz
Frame rate : 31.250 FPS (1536 SPF)
Bit depth : 16 bits
Compression mode : Lossy
Stream size : 316 MiB (15%)
Language : English
Service kind : Complete Main
Default : No
Forced : No
Text #1
ID : 4
Format : UTF-8
Codec ID : S_TEXT/UTF8
Codec ID/Info : UTF-8 Plain Text
Title : Forced
Language : Russian
Default : Yes
Forced : No
Text #2
ID : 5
Format : UTF-8
Codec ID : S_TEXT/UTF8
Codec ID/Info : UTF-8 Plain Text
Title : Full (Enigma)
Language : Russian
Default : No
Forced : No
Text #3
ID : 6
Format : UTF-8
Codec ID : S_TEXT/UTF8
Codec ID/Info : UTF-8 Plain Text
Language : English
Default : No
Forced : No
Menu
00:00:00.000 : en:Feature Start
00:02:27.080 : en:Title
01:43:07.320 : en:End Credits

Release was prepared by RG Cinema


[toptorrent.pw].t6055.torrent
Torrent: Registered [ 2019-07-16 14:01 ] · 4CA4CBDACB8DE8ED5BB922C90C7A450717411C64

Download .torrent

Download

11 KB

Status: checked
Completed: 1 times
Size: 2.12 GB
Rate: 
(Vote: 2)
Has thanked: 2  Thanks   (List)
terms.php


Last edited by _Deimos_ on 2019-07-16 14:05; edited 1 time in total

_Deimos_ ®

VIP пользователь

Gender: Male

Longevity: 1 year 9 months

Posts: 379

Карма: 33000 [+]

Наличие запрета:

[Profile] [PM]

Post 16-Jul-2019 14:04 (after 5 days)

[Quote]

Торрент файл обновлён! 
Display posts:    
Reply to topic

Current time is: 19-Nov 10:09

All times are UTC + 5



You cannot post new topics in this forum
You cannot reply to topics in this forum
You cannot edit your posts in this forum
You cannot delete your posts in this forum
You cannot vote in polls in this forum
You cannot attach files in this forum
You can download files in this forum