Пенниуорт / Pennyworth / Сезон 1 / Серии 1-10 из 10 (Роб Бэйли, Билл Иглз, Дэнни Кэннон) [2019, Драма, Боевик, Криминал, WEB-DL 720p] MVO (LostFilm)

Reply to topic

DL-List and Torrent activity
Size:  16.79 GB   |    Registered:  2 months 6 days   |    Completed:  0 times

Seeder not seen: 1 month 25 days

 
 
 
 
Author Message

.:Mercury:. ®

Gender: Male

Longevity: 1 year 10 months

Posts: 3603

Карма: 31947 [+]

Наличие запрета:

[Profile] [PM]

Post 30-Jul-2019 08:33

[Quote]

Пенниуорт / Pennyworth- - -Год выпуска: 2019
Страна: США
Жанр: Драма, Боевик, Криминал
Продолжительность: ~01:00:00 серия
Перевод: Профессиональный (многоголосый, закадровый) LostFilm--Режиссер: Роб Бэйли, Билл Иглз, Дэнни Кэннон--В ролях: Джек Бэннон, Палома Фэйт, Бен Элдридж, Джейсон Флеминг, Хэйнсли Ллойд Беннетт, Дороти Эткинсон, Эмма Коррин, Райан Флетчер, Иан Палстон-Дэвис, Ники Виккери--Описание: После демобилизации из армии Альфред Пенниуорт (Джек Бэннон) пытается устроиться среди гражданских, и, что часто случается с военными, начинает как вышибала в ночном клубе. Эта приземленная работа вызывает большое неудовольствие его отца, профессионального дворецкого. Продолжая мечтать о чем-то большем, Альфред встречает Томаса Уэйна (Бен Элдридж) — прямолинейного финансового аналитика, расследующего экономические преступления и заговоры. Пенниуорт освобождает сестру нового знакомого от подозрительных личностей, чем демонстрирует, что бывших солдат не бывает, как бы ему ни хотелось забыть о своем военном прошлом. Тем более что еще не время терять хватку: безопасности королевства угрожают тайные организации, которые собираются изменить будущее британского государства и всего мира.--Доп. информация: «Пенниуорт» — это криминальная драма канала Epix, основанная на персонажах графических новелл DC Comics. Однако история берет начало не в Готэме или Централ-сити, где происходят события комиксов, а в Лондоне 1960-х годов. В центре сюжета — Альфред Пенниуорт, бывший солдат Особой воздушной службы Великобритании. После завершения военной карьеры харизматичный молодой человек в исполнении Джека Бэннона ищет новое предназначение и знакомится с Томасом Уэйном — отцом будущего Бэтмена. «Пенниуорт» — это увлекательная и стильная предыстория становления главного сторонника, помощника и опекуна Брюса Уэйна, и его приключения определенно заслуживают особого внимания. Исполнительными продюсерами и сценаристами сериала выступили Бруно Хеллер («Рим») и Дэнни Кэннон («Люди будущего»), уже зарекомендовавшие себя работой над «Готэмом».--Качество: WEB-DL 720p
Формат: MP4
Видео кодек: H.264
Аудио кодек: AAC
Видео: MPEG4 Video (H264) 1280x720 23.976fps 3996kbps
Аудио: AAC 48000Hz stereo 275kbps 2ch
General
Complete name : D:\Пенниуорт - Pennyworth WEB-DL 720p (1 сезон) LostFilm\Pennyworth.S01E01.720p.rus.LostFilm.TV.mp4
Format : MPEG-4
Format profile : Base Media
Codec ID : isom (isom)
File size : 2.15 GiB
Duration : 1 h 11 min
Overall bit rate mode : Variable
Overall bit rate : 4 277 kb/s
Collection : Пенниуорт
Season : 1
Album : Пенниуорт, Сезон 1
Album/Performer : Пенниуорт
Part : 1
Part/Position : 1
Track name : Пилот
Track name/Position : 1
Performer : Пенниуорт
Genre : Drama
ContentType : TV Show
Recorded date : 2019
Encoded date : UTC 2019-07-28 11:09:01
Tagged date : UTC 2019-07-28 11:09:01
Writing application : Yamb 2.1.0.0 [http://yamb.unite-video.com] / LostCoder
Copyright : LostFilm.TV(c)
Cover : Yes
Comment : После демобилизации из армии Альфред Пенниуорт пытается устроиться среди гражданских, и, что часто случается с военными, начинает как вышибала в ночном клубе. Эта приземленная работа вызывает большое неудовольствие его отца, профессионального дворецкого.
Part_ID : 101
Video
ID : 1
Format : AVC
Format/Info : Advanced Video Codec
Format profile : High@L4.1
Format settings : CABAC / 4 Ref Frames
Format settings, CABAC : Yes
Format settings, Reference fra : 4 frames
Codec ID : avc1
Codec ID/Info : Advanced Video Coding
Duration : 1 h 11 min
Bit rate : 4 000 kb/s
Maximum bit rate : 14.6 Mb/s
Width : 1 280 pixels
Height : 720 pixels
Display aspect ratio : 16:9
Frame rate mode : Constant
Frame rate : 23.976 (24000/1001) FPS
Original frame rate : 23.976 (23976/1000) FPS
Color space : YUV
Chroma subsampling : 4:2:0
Bit depth : 8 bits
Scan type : Progressive
Bits/(Pixel*Frame) : 0.181
Stream size : 2.01 GiB (93%)
Title : Imported with GPAC 0.4.6-DEV (internal rev. 5)
Writing library : x264 core 112 r1834 a51816a
Encoding settings : cabac=1 / ref=4 / deblock=1:-3:-2 / analyse=0x3:0x113 / me=hex / subme=7 / psy=1 / psy_rd=1.00:0.00 / mixed_ref=1 / me_range=16 / chroma_me=1 / trellis=1 / 8x8dct=1 / cqm=0 / deadzone=21,11 / fast_pskip=1 / chroma_qp_offset=-2 / threads=12 / sliced_threads=0 / nr=0 / decimate=1 / interlaced=0 / constrained_intra=0 / bframes=5 / b_pyramid=2 / b_adapt=1 / b_bias=0 / direct=1 / weightb=1 / open_gop=0 / weightp=2 / keyint=250 / keyint_min=25 / scenecut=40 / intra_refresh=0 / rc_lookahead=40 / rc=2pass / mbtree=1 / bitrate=4000 / ratetol=1.0 / qcomp=0.60 / qpmin=0 / qpmax=51 / qpstep=4 / cplxblur=20.0 / qblur=0.5 / vbv_maxrate=10000 / vbv_bufsize=256000 / ip_ratio=1.40 / aq=1:1.00 / nal_hrd=none
Encoded date : UTC 2019-07-27 17:39:12
Tagged date : UTC 2019-07-28 11:10:55
Codec configuration box : avcC
Audio
ID : 2
Format : AAC LC
Format/Info : Advanced Audio Codec Low Complexity
Codec ID : mp4a-40-2
Duration : 1 h 11 min
Bit rate mode : Variable
Bit rate : 275 kb/s
Maximum bit rate : 352 kb/s
Channel(s) : 2 channels
Channel layout : L R
Sampling rate : 48.0 kHz
Frame rate : 46.875 FPS (1024 SPF)
Compression mode : Lossy
Stream size : 142 MiB (6%)
Encoded date : UTC 2019-07-28 11:10:52
Tagged date : UTC 2019-07-28 11:10:55

Release was prepared by RG Serials



If your ratio falls below 0.3, you will not be able to download Torrents! More about the rating.

[toptorrent.pw].t6080.torrent
Torrent: Registered [ 2019-10-02 10:39 ] · D0F72ED86842AC6439C13652F91139E857E432D3

Download .torrent

Download

85 KB

Status: checked
Completed: 0 times
Size: 16.79 GB
Rate: 
(Vote: 1)
Has thanked: 1  Thanks   (List)
terms.php
Display posts:    
Reply to topic

Current time is: 09-Dec 02:49

All times are UTC + 5



You cannot post new topics in this forum
You cannot reply to topics in this forum
You cannot edit your posts in this forum
You cannot delete your posts in this forum
You cannot vote in polls in this forum
You cannot attach files in this forum
You can download files in this forum