Мстители: Финал / Avengers: Endgame (Энтони Руссо, Джо Руссо) [2019 г., Фантастика, фэнтези, боевик, приключения, BDRip 720p] DUB [iTunes]

Reply to topic

DL-List and Torrent activity
Size:  8.58 GB   |    Registered:  2 months 13 days   |    Completed:  1 time
Seeders:  7  [  0 KB/s  ]   Show peers in full details
   
 
Author Message

_Deimos_ ®

VIP пользователь

Gender: Male

Longevity: 1 year 8 months

Posts: 379

Карма: 33000 [+]

Наличие запрета:

[Profile] [PM]

Post 03-Aug-2019 02:52

[Quote]

Мстители: Финал-
-- Год выпуска: 2019
Страна: США
Жанр: Фантастика, фэнтези, боевик, приключения
Продолжительность: 03:01:11
Перевод: Дублированный [iTunes]--Режиссер: Энтони Руссо, Джо Руссо--В ролях: Роберт Дауни мл., Крис Эванс, Марк Руффало, Крис Хемсворт, Скарлетт Йоханссон, Джереми Реннер, Дон Чидл, Пол Радд, Бри Ларсон, Карен Гиллан-- Оставшиеся в живых члены команды Мстителей и их союзники должны разработать новый план, который поможет противостоять разрушительным действиям могущественного титана Таноса. После наиболее масштабной и трагической битвы в истории они не могут допустить ошибку.-- Качество: BDRip 720p
Формат видео: MKV
Видео кодек: H.264, 1280x536, 23.976 fps, 5500 kb/s
Аудио кодек 1: AC3, 48.0 kHz, 6 channels, 384 kb/s DUB [iTunes]
Аудио кодек 2: AC3, 48.0 kHz, 2 channels, 256 kb/s MVO [HDRezka Studio]
Аудио кодек 3: AC3, 48.0 kHz, 6 channels, 640 kb/s Оригинал (Английский)
Субтитры: Русские иАнглийские--

Рейтинг фильма --
General
Unique ID : 136761861748011835825183675284436231933 (0x66E36060EE94EA2041DCEF4D52FB26FD)
Complete name : G:\Kino\Avengers.Endgame.2019.BDRip.720p.seleZen.mkv
Format : Matroska
Format version : Version 4 / Version 2
File size : 8.58 GiB
Duration : 3 h 1 min
Overall bit rate : 6 761 kb/s
Movie name : Avenger's Endgame 2019 from селезень
Encoded date : UTC 2019-08-01 18:44:46
Writing application : mkvmerge v22.0.0 ('At The End Of The World') 64-bit
Writing library : libebml v1.3.5 + libmatroska v1.4.8
Video
ID : 1
Format : AVC
Format/Info : Advanced Video Codec
Format profile : High@L4.1
Format settings, CABAC : Yes
Format settings, RefFrames : 12 frames
Codec ID : V_MPEG4/ISO/AVC
Duration : 3 h 1 min
Bit rate : 5 500 kb/s
Width : 1 280 pixels
Height : 536 pixels
Display aspect ratio : 2.40:1
Frame rate mode : Constant
Frame rate : 23.976 (24000/1001) FPS
Color space : YUV
Chroma subsampling : 4:2:0
Bit depth : 8 bits
Scan type : Progressive
Bits/(Pixel*Frame) : 0.334
Stream size : 6.95 GiB (81%)
Title : HDChina
Writing library : x264 core 148 r2665kMod a01e339
Encoding settings : cabac=1 / ref=12 / deblock=1:-3:-3 / analyse=0x3:0x133 / me=umh / subme=11 / psy=1 / fade_compensate=0.00 / psy_rd=1.05:0.00 / mixed_ref=1 / me_range=32 / chroma_me=1 / trellis=2 / 8x8dct=1 / cqm=0 / deadzone=21,11 / fast_pskip=0 / chroma_qp_offset=-2 / threads=17 / lookahead_threads=2 / sliced_threads=0 / nr=0 / decimate=0 / interlaced=0 / bluray_compat=0 / constrained_intra=0 / fgo=0 / bframes=8 / b_pyramid=2 / b_adapt=2 / b_bias=0 / direct=3 / weightb=1 / open_gop=0 / weightp=2 / keyint=240 / keyint_min=24 / scenecut=40 / intra_refresh=0 / rc=2pass / mbtree=0 / bitrate=5500 / ratetol=1.0 / qcomp=0.70 / qpmin=0 / qpmax=69 / qpstep=4 / cplxblur=20.0 / qblur=0.5 / ip_ratio=1.20 / pb_ratio=1.20 / aq=3:0.85
Language : English
Default : Yes
Forced : No
Audio #1
ID : 2
Format : AC-3
Format/Info : Audio Coding 3
Format settings, Endianness : Big
Codec ID : A_AC3
Duration : 3 h 1 min
Bit rate mode : Constant
Bit rate : 384 kb/s
Channel(s) : 6 channels
Channel positions : Front: L C R, Side: L R, LFE
Sampling rate : 48.0 kHz
Frame rate : 31.250 FPS (1536 SPF)
Bit depth : 16 bits
Compression mode : Lossy
Stream size : 499 MiB (6%)
Title : iTunes
Language : Russian
Service kind : Complete Main
Default : Yes
Forced : Yes
Audio #2
ID : 3
Format : AC-3
Format/Info : Audio Coding 3
Format settings, Endianness : Big
Codec ID : A_AC3
Duration : 3 h 1 min
Bit rate mode : Constant
Bit rate : 256 kb/s
Channel(s) : 2 channels
Channel positions : Front: L R
Sampling rate : 48.0 kHz
Frame rate : 31.250 FPS (1536 SPF)
Bit depth : 16 bits
Compression mode : Lossy
Stream size : 333 MiB (4%)
Title : MVO [HDRezka Studio]
Language : Russian
Service kind : Complete Main
Default : No
Forced : No
Audio #3
ID : 4
Format : AC-3
Format/Info : Audio Coding 3
Format settings, Endianness : Big
Codec ID : A_AC3
Duration : 3 h 1 min
Bit rate mode : Constant
Bit rate : 640 kb/s
Channel(s) : 6 channels
Channel positions : Front: L C R, Side: L R, LFE
Sampling rate : 48.0 kHz
Frame rate : 31.250 FPS (1536 SPF)
Bit depth : 16 bits
Compression mode : Lossy
Stream size : 829 MiB (9%)
Title : Original
Language : English
Service kind : Complete Main
Default : No
Forced : No
Text #1
ID : 5
Format : UTF-8
Codec ID : S_TEXT/UTF8
Codec ID/Info : UTF-8 Plain Text
Duration : 2 h 17 min
Bit rate : 1 b/s
Count of elements : 34
Stream size : 1.14 KiB (0%)
Title : Forced (iTunes)
Language : Russian
Default : Yes
Forced : Yes
Text #2
ID : 6
Format : UTF-8
Codec ID : S_TEXT/UTF8
Codec ID/Info : UTF-8 Plain Text
Duration : 3 h 0 min
Bit rate : 78 b/s
Count of elements : 2627
Stream size : 104 KiB (0%)
Title : SDH (iTunes)
Language : Russian
Default : No
Forced : No
Text #3
ID : 7
Format : UTF-8
Codec ID : S_TEXT/UTF8
Codec ID/Info : UTF-8 Plain Text
Duration : 2 h 29 min
Bit rate : 1 b/s
Count of elements : 39
Stream size : 1.78 KiB (0%)
Title : Forced (Enigma)
Language : Russian
Default : No
Forced : No
Text #4
ID : 8
Format : UTF-8
Codec ID : S_TEXT/UTF8
Codec ID/Info : UTF-8 Plain Text
Duration : 2 h 49 min
Bit rate : 80 b/s
Count of elements : 2222
Stream size : 100 KiB (0%)
Title : Full (Ruf)
Language : Russian
Default : No
Forced : No
Text #5
ID : 9
Format : UTF-8
Codec ID : S_TEXT/UTF8
Codec ID/Info : UTF-8 Plain Text
Duration : 2 h 47 min
Bit rate : 49 b/s
Count of elements : 2329
Stream size : 61.1 KiB (0%)
Title : Full
Language : English
Default : No
Forced : No
Text #6
ID : 10
Format : UTF-8
Codec ID : S_TEXT/UTF8
Codec ID/Info : UTF-8 Plain Text
Duration : 3 h 0 min
Bit rate : 51 b/s
Count of elements : 2630
Stream size : 68.3 KiB (0%)
Title : SDH
Language : English
Default : No
Forced : No
Text #7
ID : 11
Format : UTF-8
Codec ID : S_TEXT/UTF8
Codec ID/Info : UTF-8 Plain Text
Duration : 3 h 0 min
Bit rate : 65 b/s
Count of elements : 2630
Stream size : 86.9 KiB (0%)
Title : SDH Colored
Language : English
Default : No
Forced : No
Menu
00:00:00.000 : en:Chapter 01
00:08:05.902 : en:Chapter 02
00:20:01.700 : en:Chapter 03
00:26:15.282 : en:Chapter 04
00:36:57.173 : en:Chapter 05
00:43:20.598 : en:Chapter 06
00:48:44.171 : en:Chapter 07
00:57:36.745 : en:Chapter 08
01:07:12.612 : en:Chapter 09
01:16:02.516 : en:Chapter 10
01:26:25.430 : en:Chapter 11
01:32:20.118 : en:Chapter 12
01:38:55.805 : en:Chapter 13
01:48:12.361 : en:Chapter 14
01:57:26.915 : en:Chapter 15
02:05:00.243 : en:Chapter 16
02:15:06.432 : en:Chapter 17
02:25:50.450 : en:Chapter 18
02:34:37.935 : en:Chapter 19
02:43:03.899 : en:Chapter 20
02:49:05.344 : en:Chapter 21

Release was prepared by RG Cinema


[toptorrent.pw].t6086.torrent
Torrent: Registered [ 2019-08-03 02:52 ] · B915C8E6BBB93FE833BB97648358FB2A4C2C4439

Download .torrent

Download

11 KB

Status: checked
Completed: 1 times
Size: 8.58 GB
Rate: 
(Vote: 3)
Has thanked: 3  Thanks   (List)
terms.php


Last edited by _Deimos_ on 2019-08-03 02:53; edited 1 time in total
Display posts:    
Reply to topic

Current time is: 16-Oct 03:34

All times are UTC + 5



You cannot post new topics in this forum
You cannot reply to topics in this forum
You cannot edit your posts in this forum
You cannot delete your posts in this forum
You cannot vote in polls in this forum
You cannot attach files in this forum
You can download files in this forum