Мстители: Финал / Avengers: Endgame (Энтони Руссо, Джо Руссо) [2019 г., Фантастика, фэнтези, боевик, приключения, HDRip-AVC] DUB [iTunes]

Reply to topic

DL-List and Torrent activity
Size:  2.18 GB   |    Registered:  1 month 15 days   |    Completed:  1 time
Seeders:  12  [  0 KB/s  ]   Show peers in full details
   
 
Author Message

_Deimos_ ®

VIP пользователь

Gender: Male

Longevity: 1 year 7 months

Posts: 379

Карма: 33000 [+]

Наличие запрета:

[Profile] [PM]

Post 04-Aug-2019 17:55

[Quote]

Мстители: Финал-
--Год выпуска: 2019
Страна: CША,
Жанр: Фантастика, фэнтези, боевик, приключения
Продолжительность: 03:01:11
Перевод: Дублированный [iTunes]--Режиссер: Anthony Russo, Joe Russo--В ролях: Роберт Дауни мл., Крис Эванс, Марк Руффало, Крис Хемсворт, Скарлетт Йоханссон, Джереми Реннер, Дон Чидл, Пол Радд, Бри Ларсон, Карен Гиллан-- : Оставшиеся в живых члены команды Мстителей и их союзники должны разработать новый план, который поможет противостоять разрушительным действиям могущественного титана Таноса. После наиболее масштабной и трагической битвы в истории они не могут допустить ошибку.-- Качество: HDRip-AVC
Формат видео: MKV
Видео: H.264, 720x302, 23.976 fps, 1273 kb/s
Аудио 1: AC3, 48.0 kHz, 6 channels, 384 kb/s [iTunes]
Аудио 2: AC3, 48.0 kHz, 2 channels, 64.0 kb/s [HDRezka Studio ]
Субтитры: Русские--

Рейтинг фильма --
General
Unique ID : 123263896361689934652062825385381322106 (0x5CBBC34DD6D79978D8D58E1AF1F7DD7A)
Complete name : F:\Kino\Avengers.Endgame.2019.HDRip(AVC).2.18.OlLanDGroup.mkv
Format : Matroska
Format version : Version 4 / Version 2
File size : 2.18 GiB
Duration : 3 h 1 min
Overall bit rate : 1 720 kb/s
Movie name : Avengers.Endgame.2019 #TorpedoUK#
Encoded date : UTC 2019-08-01 19:41:22
Writing application : mkvmerge v29.0.0 ('Like It Or Not') 64-bit
Writing library : libebml v1.3.6 + libmatroska v1.4.9
Video
ID : 1
Format : AVC
Format/Info : Advanced Video Codec
Format profile : High@L4.1
Format settings, CABAC : Yes
Format settings, RefFrames : 10 frames
Codec ID : V_MPEG4/ISO/AVC
Duration : 3 h 1 min
Bit rate : 1 273 kb/s
Width : 720 pixels
Height : 302 pixels
Display aspect ratio : 2.40:1
Frame rate mode : Constant
Frame rate : 23.976 (24000/1001) FPS
Color space : YUV
Chroma subsampling : 4:2:0
Bit depth : 8 bits
Scan type : Progressive
Bits/(Pixel*Frame) : 0.244
Stream size : 1.61 GiB (74%)
Writing library : x264 core 146 r2538 121396c
Encoding settings : cabac=1 / ref=10 / deblock=1:-2:-3 / analyse=0x3:0x113 / me=umh / subme=10 / psy=1 / psy_rd=0.95:0.07 / mixed_ref=1 / me_range=48 / chroma_me=1 / trellis=2 / 8x8dct=1 / cqm=0 / deadzone=21,11 / fast_pskip=1 / chroma_qp_offset=-3 / threads=6 / lookahead_threads=1 / sliced_threads=0 / nr=0 / decimate=1 / interlaced=0 / bluray_compat=0 / constrained_intra=0 / bframes=11 / b_pyramid=2 / b_adapt=2 / b_bias=0 / direct=3 / weightb=1 / open_gop=0 / weightp=2 / keyint=240 / keyint_min=23 / scenecut=40 / intra_refresh=0 / rc_lookahead=40 / rc=2pass / mbtree=0 / bitrate=1273 / ratetol=1.0 / qcomp=0.60 / qpmin=0 / qpmax=69 / qpstep=4 / cplxblur=20.0 / qblur=0.5 / vbv_maxrate=50000 / vbv_bufsize=62500 / nal_hrd=none / filler=0 / ip_ratio=1.40 / pb_ratio=1.30 / aq=1:1.00
Default : Yes
Forced : No
Audio #1
ID : 2
Format : AC-3
Format/Info : Audio Coding 3
Format settings, Endianness : Big
Codec ID : A_AC3
Duration : 3 h 1 min
Bit rate mode : Constant
Bit rate : 384 kb/s
Channel(s) : 6 channels
Channel positions : Front: L C R, Side: L R, LFE
Sampling rate : 48.0 kHz
Frame rate : 31.250 FPS (1536 SPF)
Bit depth : 16 bits
Compression mode : Lossy
Stream size : 499 MiB (22%)
Title : DUB [iTunes]
Language : Russian
Service kind : Complete Main
Default : Yes
Forced : No
Audio #2
ID : 3
Format : AAC
Format/Info : Advanced Audio Codec
Format profile : HE-AAC / LC
Codec ID : A_AAC
Duration : 3 h 1 min
Bit rate : 64.0 kb/s
Channel(s) : 2 channels
Channel positions : Front: L R
Sampling rate : 48.0 kHz / 24.0 kHz
Frame rate : 23.438 FPS (1024 SPF)
Compression mode : Lossy
Delay relative to video : 31 ms
Stream size : 83.1 MiB (4%)
Title : MVO [HDRezka Studio]
Language : Russian
Default : No
Forced : No
Text #1
ID : 4
Format : UTF-8
Codec ID : S_TEXT/UTF8
Codec ID/Info : UTF-8 Plain Text
Duration : 2 h 17 min
Bit rate : 1 b/s
Count of elements : 34
Stream size : 1.14 KiB (0%)
Title : Forced
Language : Russian
Default : Yes
Forced : No
Text #2
ID : 5
Format : UTF-8
Codec ID : S_TEXT/UTF8
Codec ID/Info : UTF-8 Plain Text
Duration : 3 h 0 min
Bit rate : 78 b/s
Count of elements : 2627
Stream size : 104 KiB (0%)
Title : SDH
Language : Russian
Default : No
Forced : No
Menu
00:00:00.000 : en:Chapter 01
00:08:05.902 : en:Chapter 02
00:20:01.700 : en:Chapter 03
00:26:15.282 : en:Chapter 04
00:36:57.173 : en:Chapter 05
00:43:20.598 : en:Chapter 06
00:48:44.171 : en:Chapter 07
00:57:36.745 : en:Chapter 08
01:07:12.612 : en:Chapter 09
01:16:02.516 : en:Chapter 10
01:26:25.430 : en:Chapter 11
01:32:20.118 : en:Chapter 12
01:38:55.805 : en:Chapter 13
01:48:12.361 : en:Chapter 14
01:57:26.915 : en:Chapter 15
02:05:00.243 : en:Chapter 16
02:15:06.432 : en:Chapter 17
02:25:50.450 : en:Chapter 18
02:34:37.935 : en:Chapter 19
02:43:03.899 : en:Chapter 20
02:49:05.344 : en:Chapter 21

Release was prepared by RG Cinema


[toptorrent.pw].t6088.torrent
Torrent: Registered [ 2019-08-04 17:55 ] · CE4A3F6E814D6EB63A39438258FF3182C11735B4

Download .torrent

Download

12 KB

Status: checked
Completed: 1 times
Size: 2.18 GB
Rate: 
(Vote: 1)
Has thanked: 1  Thanks   (List)
terms.php
Display posts:    
Reply to topic

Current time is: 20-Sep 14:33

All times are UTC + 5



You cannot post new topics in this forum
You cannot reply to topics in this forum
You cannot edit your posts in this forum
You cannot delete your posts in this forum
You cannot vote in polls in this forum
You cannot attach files in this forum
You can download files in this forum