Борьба с моей семьей / Fighting with My Family (Стивен Мерчант) [2019 г., Драма, комедия, биография, спорт, BDRip] DUB [Лицензия]

Reply to topic
 
Author Message

_Deimos_ ®

VIP пользователь

Gender: Male

Longevity: 1 year 8 months

Posts: 379

Карма: 33000 [+]

Наличие запрета:

[Profile] [PM]

Post 05-Aug-2019 22:39

[Quote]

Борьба с моей семьей-
--Год выпуска: 2019
Страна: Великобритания, США
Жанр: Драма, комедия, биография, спорт
Продолжительность: 01:48:29
Перевод: Дублированный [Лицензия]--Режиссёр: Стивен Мерчант--В ролях: Дуэйн Джонсон, Томас Уилли, Тори Эллен Росс, Ник Фрост, Лина Хиди, Флоренс Пью, Джек Лауден, Оливия Бернстоун, Леа Фергюсон, Мохаммад Али Амири, Винс Вон-- : В центре сюжета семья Бевис: бывший рестлер Патрик, его жена Джулия и их дети Зак и Сарайя. Они устраивают живые выступления на маленьких площадках, разъезжая по стране. Зак и Сарайя мечтают стать известными и попасть в международную ассоциацию рестлинга.-- Качество: BDRip
Формат видео: AVI
Видео: Xvid, 720x304, 23.976 fps, 1467 kb/s
Аудио: AC3, 48.0 kHz, 6 channels, 448 kb/s--

Рейтинг фильма --
General
Complete name : F:\Kino\Fighting.with.My.Family.2019.BDRip\Fighting.with.My.Family.2019.BDRip.avi
Format : AVI
Format/Info : Audio Video Interleave
File size : 1.46 GiB
Duration : 1 h 48 min
Overall bit rate : 1 924 kb/s
Movie name : 6
Writing application : V
Original source form/Name : K
Video
ID : 0
Format : MPEG-4 Visual
Format profile : Advanced Simple@L5
Format settings, BVOP : 2
Format settings, QPel : No
Format settings, GMC : No warppoints
Format settings, Matrix : Default (MPEG)
Codec ID : XVID
Codec ID/Hint : XviD
Duration : 1 h 48 min
Bit rate : 1 467 kb/s
Width : 720 pixels
Height : 304 pixels
Display aspect ratio : 2.35:1
Frame rate : 23.976 (24000/1001) FPS
Color space : YUV
Chroma subsampling : 4:2:0
Bit depth : 8 bits
Scan type : Progressive
Compression mode : Lossy
Bits/(Pixel*Frame) : 0.279
Stream size : 1.11 GiB (76%)
Writing library : XviD 1.2.1 (UTC 2008-12-04)
Audio
ID : 1
Format : AC-3
Format/Info : Audio Coding 3
Format settings, Endianness : Big
Codec ID : 2000
Duration : 1 h 48 min
Bit rate mode : Constant
Bit rate : 448 kb/s
Channel(s) : 6 channels
Channel positions : Front: L C R, Side: L R, LFE
Sampling rate : 48.0 kHz
Frame rate : 31.250 FPS (1536 SPF)
Bit depth : 16 bits
Compression mode : Lossy
Stream size : 348 MiB (23%)
Alignment : Split accross interleaves
Interleave, duration : 42 ms (1.00 video frame)
Interleave, preload duration : 500 ms
Service kind : Complete Main

Release was prepared by RG Cinema

Display posts:    
Reply to topic

Current time is: 16-Oct 01:58

All times are UTC + 5



You cannot post new topics in this forum
You cannot reply to topics in this forum
You cannot edit your posts in this forum
You cannot delete your posts in this forum
You cannot vote in polls in this forum
You cannot attach files in this forum
You cannot download files in this forum