Пропавшие среди живых (Владимир Фетин) [1981, СССР, Криминал, детектив, экранизация, DVDRip]

Reply to topic

DL-List and Torrent activity
Size:  1.37 GB   |    Registered:  2 months 7 days   |    Completed:  1 time
Seeders:  1  [  0 KB/s  ]   Leechers:  1  [  0 KB/s  ]   Show peers in full details
 
 
 
 
Author Message

фазилов ®

Gender: Male

Longevity: 1 year 8 months

Posts: 432

Карма: -4589 [+]

Location: Таш-море

Наличие запрета:

[Profile] [PM]

Post 07-Aug-2019 19:00

[Quote]

Год выпуска: 1981
Страна: СССР, Киностудия «Ленфильм»
Жанр: Криминал, детектив, экранизация
Продолжительность: 01:20:03

Режиссер: Владимир Фетин
В ролях: Александр Демьяненко, Павел Кадочников, Эрнст Романов, Сергей Иванов (II), Надежда Шумилова, Ирина Богданова, Михаил Долгинин, Владимир Юрьев, Елена Андерегг, Александр Анисимов, Юрий Башков
Описание:Не встретил бы Евгений Хилков, работающий таксистом, одним поздним вечером пожилого мужчину, назвавшего себя капитаном дальнего плавания, не знал бы горя. Увы, не все можно предугадать. «Хилый» спокойно доставил своего очередного клиента (Федора Борисовича) до места назначения, не догадываясь, что за его спиной сидит матерый преступник и воровской авторитет Кашлев, который задумал втянуть таксиста в «свои» делишки. Отныне «Хилый» становится безвольной пешкой в зловещей игре бандита, помогая тому совершать автоугоны. Однажды на их след выходит милиция....
Фильм снят по одноимённой повести Сергея Высоцкого.
Качество: DVDRip
Формат: AVI

Видео кодек: XviD
Аудио кодек: AC3

Видео: XviD, 720x352 (2,05х1), 2247 Кбит/с, Fps-25,0
Аудио: AC-3, 192 kbps, 2 channels-Front: L R, 48 kHz

General
Complete name : D: Пропавшие среди живых. СССР-1981г..avi
Format : AVI
Format/Info : Audio Video Interleave
File size : 1.37 GiB
Duration : 1h 20mn
Overall bit rate : 2 445 Kbps
Writing application : VirtualDubMod 1.5.4.1 (build 2178/release)
Writing library : VirtualDubMod build 2178/release
Video
ID : 0
Format : MPEG-4 Visual
Format profile : Advanced Simple@L5
Format settings, BVOP : No
Format settings, QPel : No
Format settings, GMC : No warppoints
Format settings, Matrix : Custom
Codec ID : XVID
Codec ID/Hint : XviD
Duration : 1h 20mn
Bit rate : 2 247 Kbps
Width : 720 pixels
Height : 352 pixels
Display aspect ratio : 2.045
Frame rate : 25.000 fps
Color space : YUV
Chroma subsampling : 4:2:0
Bit depth : 8 bits
Scan type : Progressive
Compression mode : Lossy
Bits/(Pixel*Frame) : 0.355
Stream size : 1.26 GiB (92%)
Writing library : XviD 1.0.3 (UTC 2004-12-20)
Audio
ID : 1
Format : AC-3
Format/Info : Audio Coding 3
Mode extension : CM (complete main)
Format settings, Endianness : Big
Codec ID : 2000
Duration : 1h 20mn
Bit rate mode : Constant
Bit rate : 192 Kbps
Channel(s) : 2 channels
Channel positions : Front: L R
Sampling rate : 48.0 KHz
Bit depth : 16 bits
Compression mode : Lossy
Stream size : 110 MiB (8%)
Alignment : Split accross interleaves
Interleave, duration : 96 ms (2.40 video frames)
Interleave, preload duration : 96 ms
Language : Russian
Релиз подготовлен группой Мои релизы

[toptorrent.pw].t6093.torrent
 SILVER TORRENT! DOWNLOAD TRAFFIC PARTIALLY CONSIDERED! 
Вечный
Torrent: Registered [ 2019-08-07 19:00 ] · 13C848C9FB04D27441CB99BD43585E5AFF7EB40F

Download .torrent

Download

14 KB

Status: checked
Completed: 1 times
Size: 1.37 GB
Rate: 
(Vote: 3)
Has thanked: 3  Thanks   (List)
terms.php
Display posts:    
Reply to topic

Current time is: 15-Oct 14:18

All times are UTC + 5



You cannot post new topics in this forum
You cannot reply to topics in this forum
You cannot edit your posts in this forum
You cannot delete your posts in this forum
You cannot vote in polls in this forum
You cannot attach files in this forum
You can download files in this forum