Фильм о звёздах, которые навсегда останутся в небе (Пахтакор-1979) ( Фаррух Расулов, Сардор Ахмедов)[2019, История, трагедия , SATRip-AVC]

Reply to topic

DL-List and Torrent activity
Size:  700 MB   |    Registered:  3 months 25 days   |    Completed:  1 time
Seeders:  1  [  0 KB/s  ]   Leechers:  1  [  0 KB/s  ]   Show peers in full details
 
 
 
 
Author Message

фазилов ®

Gender: Male

Longevity: 1 year 10 months

Posts: 427

Карма: -4584 [+]

Location: Таш-море

Наличие запрета:

[Profile] [PM]

Post 18-Aug-2019 11:25

[Quote]

Год выпуска: 2019
Страна: Узбекистан. "Mediamakon"-2019
Жанр: Документальный, История, трагедия.
Продолжительность: 00:40:37
Перевод: Не требуется (оригинал-Русский, Узбекский)
Режиссёры: Фаррух Расулов, Сардор Ахмедов, Мухиддин Боймирзаев

В ролях: Виктор Вон, Сергей Усманов, Фотих Насимов, Артур Скобелев, Бунёд Рахматуллаев, Анвар Картаев. Аброр Юлдашев.

Текст читает: Всеволод Кузнецов (Россия)
Описание: Фильм посвящён памяти футболистов «Пахтакора», погибших в авиакатастрофе в 1979 году. С момента трагедии прошло 40 лет.
11 августа 1979 года в небе в районе Днепродзержинска (ныне Каменское) на высоте 8400 м столкнулись два авиалайнера Ту-134А авиакомпании «Аэрофлот» (рейсы 7628 Челябинск — Воронеж — Кишинёв и 7880 Ташкент — Гурьев — Донецк — Минск), в результате чего погибли все находившиеся на них 178 человек (94 на рейсе 7628 и 84 на рейсе 7880).
Среди погибших оказались 17 членов узбекского футбольного клуба «Пахтакор», из-за чего событие получило особый резонанс.

Качество: SATRip
Формат: MPEG4
Видео кодек: AVC1
Аудио кодек: AAC
Видео: 1920х1080, 2275 kbps, 25,0 fps
Аудио: AAC, 44100Hz, 2ch-Front L R, 128kbps


Общее
Полное имя : F:\Фильм о звёздах, которые навсегда останутся в небе (Пахтакор-1979).mp4
Формат : MPEG-4
Профиль формата : Base Media
Идентификатор кодека : isom (isom/iso2/avc1/mp41)
Размер файла : 700 Мбайт
Продолжительность : 40 м. 37 с.
Общий поток : 2409 Кбит/сек
Программа кодирования : Lavf58.27.103
Видео
Идентификатор : 1
Формат : AVC
Формат/Информация : Advanced Video Codec
Профиль формата : High@L4
Настройки формата : CABAC / 3 Ref Frames
Параметр CABAC формата : Да
Параметр RefFrames формата : 3 кадра
Идентификатор кодека : avc1
Идентификатор кодека/Информация : Advanced Video Coding
Продолжительность : 40 м. 37 с.
Битрейт : 2275 Кбит/сек
Ширина : 1920 пикселей
Высота : 1080 пикселей
Соотношение сторон : 16:9
Режим частоты кадров : Постоянный
Частота кадров : 25,000 кадров/сек
Цветовое пространство : YUV
Субдискретизация насыщенности : 4:2:0
Битовая глубина : 8 бит
Тип развёртки : Прогрессивная
Бит/(Пиксели*Кадры) : 0.044
Размер потока : 661 Мбайт (94%)
Заголовок : ISO Media file produced by Google Inc.
Цветовой диапазон : Limited
Основные цвета : BT.709
Характеристики трансфера : BT.709
Коэффициенты матрицы : BT.709
Аудио
Идентификатор : 2
Формат : AAC
Формат/Информация : Advanced Audio Codec
Профиль формата : LC
Идентификатор кодека : mp4a-40-2
Продолжительность : 40 м. 37 с.
Вид битрейта : Постоянный
Битрейт : 128 Кбит/сек
Каналы : 2 канала
Расположение каналов : Front: L R
Частота : 44,1 КГц
Частота кадров : 43,066 кадра/сек (1024 SPF)
Метод сжатия : С потерями
Размер потока : 37,2 Мбайт (5%)
Заголовок : ISO Media file produced by Google Inc.
Язык : English
Default : Да
AlternateGroup/String : 1
Релиз подготовлен группой Мои релизы


If your ratio falls below 0.3, you will not be able to download Torrents! More about the rating.

[toptorrent.pw].t6105.torrent
Torrent: Registered [ 2019-08-18 11:25 ] · FB178617691429855144E1A76145C225F7353938

Download .torrent

Download

14 KB

Status: checked
Completed: 1 times
Size: 700 MB
Rate: 
(Vote: 3)
Has thanked: 3  Thanks   (List)
terms.php

 

Post 18-Aug-2019 11:30 (after 5 minutes)

Топик был перенесен из форума Биография. Личности и кумиры в форум Документальные фильмы
фазилов


 

Post 19-Aug-2019 10:46 (after 23 hours)

Топик был перенесен из форума Документальные фильмы в форум Биография. Личности и кумиры
.:Mercury:.

Display posts:    
Reply to topic

Current time is: 13-Dec 02:24

All times are UTC + 5



You cannot post new topics in this forum
You cannot reply to topics in this forum
You cannot edit your posts in this forum
You cannot delete your posts in this forum
You cannot vote in polls in this forum
You cannot attach files in this forum
You can download files in this forum