Любимый Раджа / Raja Jani (Мохан Сигал / Mohan Segal ) [1972, Мелодрама, DVDRip]

Reply to topic

DL-List and Torrent activity
Size:  2.06 GB   |    Registered:  1 month 23 days   |    Completed:  0 times

Seeder not seen: 1 month 20 days

 
 
 
 
Author Message

фазилов ®

Gender: Male

Longevity: 1 year 8 months

Posts: 432

Карма: -4584 [+]

Location: Таш-море

Наличие запрета:

[Profile] [PM]

Post 23-Aug-2019 18:44

[Quote]

Год выпуска: 1972
Страна: Индия, Seven Arts Films
Жанр: Мелодрама
Продолжительность: 02:04:07

Перевод: Профессиональный дублированный.(СССР) Фильм дублирован на киностудии им. Александра Довженко
Режиссер: Мохан Сигал / Mohan Segal
В РОЛЯХ: Дхармендра, Хема Малини, Прем Натх, Прем Чопра, Джонни Уолкер, Дурга Кхоте, Надира
ОПИСАНИЕ: По дороге к святым местам кровный враг семьи правителей княжества убил родителей наследной принцессы. Самой принцессе в то время исполнилось всего 7 лет. Убийца пытался похитить принцессу и скрыться. Но он был смертельно ранен охраной принца. Наследная принцесса на глазах погони падает в бурные воды горной реки… Прошли годы. В княжестве до сих пор стараются узнать хоть какие-либо вести о пропавшей принцессе. Старая княгиня твердо убеждена, что ее любимая внучка жива. На этой уверенности и строится расчет главного министра. Он решает завладеть княжеской казной. С этой целью он находит уличную танцовщицу, очень похожую на пропавшую принцессу, и старается представить ее двору, как настоящую. Качество: DVDRip
Формат: AVI

Видео кодек: XviD
Аудио кодек: AC3

Видео: XviD, 704x528 , 2095 Кбит/с, Fps-25,0
Аудио: AC-3, 192 kbps, 2 channels-Front: L R, 48 kHz

Общее
Полное имя : D:\Для объекта\Ljubimyj.Radja.1972.XviD.DVDRip..avi
Формат : AVI
Формат/Информация : Audio Video Interleave
Профиль формата : OpenDML
Размер файла : 2,06 Гбайт
Продолжительность : 2 ч. 4 м.
Общий поток : 2371 Кбит/сек
Программа кодирования : VirtualDubMod 1.5.10.1 Рус от Stvens Inc.™ www.stvens.amillo.net (build 2439/release)
Библиотека кодирования : VirtualDubMod build 2439/release
Видео
Идентификатор : 0
Формат : MPEG-4 Visual
Профиль формата : Advanced Simple@L5
Настройки формата : BVOP1 / Custom Matrix
Параметр BVOP формата : 1
Параметр QPel формата : Нет
Параметр GMC формата : Без точки перехода
Параметр матрицы формата : Выборочная
Идентификатор кодека : XVID
Идентификатор кодека/Подсказка : XviD
Продолжительность : 2 ч. 4 м.
Битрейт : 2166 Кбит/сек
Ширина : 704 пикселя
Высота : 528 пикселей
Соотношение сторон : 4:3
Частота кадров : 25,000 кадров/сек
Цветовое пространство : YUV
Субдискретизация насыщенности : 4:2:0
Битовая глубина : 8 бит
Тип развёртки : Прогрессивная
Метод сжатия : С потерями
Бит/(Пиксели*Кадры) : 0.233
Размер потока : 1,88 Гбайт (91%)
Библиотека кодирования : XviD 1.3.0.dev55
Аудио
Идентификатор : 1
Формат : AC-3
Формат/Информация : Audio Coding 3
Идентификатор кодека : 2000
Продолжительность : 2 ч. 4 м.
Вид битрейта : Постоянный
Битрейт : 192 Кбит/сек
Каналы : 2 канала
Расположение каналов : Front: L R
Частота : 48,0 КГц
Частота кадров : 31,250 кадров/сек (1536 SPF)
Битовая глубина : 16 бит
Метод сжатия : С потерями
Задержка видео : 500 мс.
Размер потока : 170 Мбайт (8%)
Выравнивание : Разделение по промежуткам
Продолжительность промежутка : 40 мс. (1,00 видеокадр)
Время предзагрузки промежутка : 500 мс.
Язык : Russian
ServiceKind/String : Complete Main
Релиз подготовлен группой Мои релизы

[toptorrent.pw].t6114.torrent
 GOLD TORRENT! DOWNLOAD TRAFFIC DOES NOT CONSIDER! 
Вечный
Torrent: Registered [ 2019-08-23 18:44 ] · FC6F88724621030B182CA79F2A53B6FCF8FB2E44

Download .torrent

Download

11 KB

Status: checked
Completed: 0 times
Size: 2.06 GB
Rate: 
(Vote: 2)
Has thanked: 1  Thanks   (List)
terms.php
Display posts:    
Reply to topic

Current time is: 16-Oct 02:08

All times are UTC + 5



You cannot post new topics in this forum
You cannot reply to topics in this forum
You cannot edit your posts in this forum
You cannot delete your posts in this forum
You cannot vote in polls in this forum
You cannot attach files in this forum
You can download files in this forum