Двойка / The Deuce / Сезон 3 / Серии 1-5 из 8 (Алекс Холл, Ута Бризвитц, Джеймс Франко) [2019, Драма, WEB-DL 1080p] MVO (Amedia) + Original + Sub Rus, Eng

Reply to topic

DL-List and Torrent activity
Size:  21.87 GB   |    Registered:  5 days   |    Completed:  0 times
Seeders:  1  [  0 KB/s  ]   Leechers:  1  [  0 KB/s  ]   Show peers in full details
 
 
 
 
Author Message

.:Mercury:. ®

Gender: Male

Longevity: 1 year 8 months

Posts: 3567

Карма: 31947 [+]

Наличие запрета:

[Profile] [PM]

Post 26-Sep-2019 11:55

[Quote]

Двойка / The Deuce- -Год выпуска: 2019
Страна: США
Жанр: Драма
Продолжительность: ~00:50:00 серия
Перевод: Профессиональный (многоголосый, закадровый) Novamedia по заказу Amedia--Режиссер: Алекс Холл, Ута Бризвитц, Джеймс Франко--В ролях: Джеймс Франко (Vincent Martino), Мэгги Джилленхол (Candy), Доминик Фишбэк (Darlene), Гари Карр (C.C.), Дэниэл Саули (Tommy Longo), Ким Директор (Shay), Мустафа Жакир (Big Mike), Сепиде Моафи (Loretta), Джино Венто (Carlos), Гбенга Акиннагбе (Larry Brown), Лоуренс Гиллиард мл. (Chris Alston), Маргарита Левиева (Abigail «Abby» Parker)--Описание: Действие финального сезона ретро-драмы «Двойка» о зарождении и закате порноиндустрии развернется в 1985 году. Порно теперь распространяется через VHS — формат, покоривший весь мир и ставший одним из главных символов поп-культуры. Не за горами захват коммерческой недвижимости на Таймс-сквер, последствия распространения ВИЧ и эпидемия крэка. Все это — признаки неотвратимого угасания когда-то процветающего бизнеса.--Доп. информация:
Рекомендуется просмотр лицам старше 18-ти лет--Качество: WEB-DL 1080p
Формат: MKV
Видео кодек: H.264
Аудио кодек: E-AC3
Видео: MPEG4 Video (H264) 1920x1080 23.976fps 10 000 kb/s
Аудио #1: DD+ 48000Hz 6ch 9216kbps | Rus (Amedia)
Аудио #2 DD+ 48000Hz 6ch 9216kbps | Eng
Субтитры: Russian (Forced, Full |Amedia|), English
General
Unique ID : 215332523831322904544528901792163679102 (0xA1FF891AC5071C24551DA770E67BCB7E)
Complete name : D:\The.Deuce.2017.S03.1080p.AMZN.WEB-DL.H.264.RUS.A.DDP5.1.SRT-EniaHD[tvslf]\The.Deuce.S03E02.Morta.di.Fame.1080p.AMZN.WEB-DL.H.264.RUS.A.DDP5.1.SRT-EniaHD.mkv
Format : Matroska
Format version : Version 4
File size : 4.38 GiB
Duration : 59 min 49 s
Overall bit rate : 10.5 Mb/s
Movie name : The Deuce, Season 3 / Morta di Fame
Track name/Position : 2
Track name/Total : 8
Description : Frankie takes his amateur porn business to the next level and ends up in a confrontation with Rudy, who pushes Vincent to up his profits. Candy brainstorms a new film based on the experiences of her fellow sex workers and finds that her new beau Hank is not shaken by her past. Abby and Loretta take care of Shay when she shows up to the Hi-Hat in bad shape. Lori is advised be more compliant after she dares to stand up for herself on set. Alston is tasked with finding the mysterious owner of a prime piece of Midtown real estate. With the future of his businesses up in the air, Paul worries about his partner Tod's health.
Released date : 2019-09-17T01:00:00
Writing application : mkvmerge v37.0.0 ('Leave It') 64-bit
Writing library : libebml v1.3.9 + libmatroska v1.5.2
Cover : Yes
Attachments : small_cover.jpg / cover.jpg
Video
ID : 1
Format : AVC
Format/Info : Advanced Video Codec
Format profile : High@L4
Format settings : CABAC / 4 Ref Frames
Format settings, CABAC : Yes
Format settings, Reference fra : 4 frames
Codec ID : V_MPEG4/ISO/AVC
Duration : 59 min 49 s
Bit rate mode : Constant
Bit rate : 10 000 kb/s
Width : 1 920 pixels
Height : 1 080 pixels
Display aspect ratio : 16:9
Frame rate mode : Constant
Frame rate : 23.976 (24000/1001) FPS
Color space : YUV
Chroma subsampling : 4:2:0
Bit depth : 8 bits
Scan type : Progressive
Bits/(Pixel*Frame) : 0.201
Stream size : 4.03 GiB (92%)
Language : English
Default : Yes
Forced : No
Color range : Limited
Color primaries : BT.709
Transfer characteristics : BT.709
Matrix coefficients : BT.709
Audio #1
ID : 2
Format : E-AC-3
Format/Info : Enhanced AC-3
Commercial name : Dolby Digital Plus
Codec ID : A_EAC3
Duration : 59 min 49 s
Bit rate mode : Constant
Bit rate : 192 kb/s
Channel(s) : 6 channels
Channel layout : L R C LFE Ls Rs
Sampling rate : 48.0 kHz
Frame rate : 31.250 FPS (1536 SPF)
Compression mode : Lossy
Stream size : 82.2 MiB (2%)
Title : E-AC3 5.1 @ 192kbps - MVO, Amedia / Novamedia
Language : Russian
Service kind : Complete Main
Default : Yes
Forced : No
Released date : 2019-09-05T12:44:37
Audio #2
ID : 3
Format : E-AC-3
Format/Info : Enhanced AC-3
Commercial name : Dolby Digital Plus
Codec ID : A_EAC3
Duration : 59 min 49 s
Bit rate mode : Constant
Bit rate : 640 kb/s
Channel(s) : 6 channels
Channel layout : L R C LFE Ls Rs
Sampling rate : 48.0 kHz
Frame rate : 31.250 FPS (1536 SPF)
Compression mode : Lossy
Stream size : 274 MiB (6%)
Title : E-AC3 5.1 @ 640kbps - Original
Language : English
Service kind : Complete Main
Default : No
Forced : No
Text #1
ID : 4
Format : PGS
Muxing mode : zlib
Codec ID : S_HDMV/PGS
Codec ID/Info : Picture based subtitle format used on BDs/HD-DVDs
Duration : 23 min 41 s
Bit rate : 165 b/s
Count of elements : 4
Stream size : 28.8 KiB (0%)
Title : Forced
Language : Russian
Default : Yes
Forced : Yes
Text #2
ID : 5
Format : UTF-8
Codec ID : S_TEXT/UTF8
Codec ID/Info : UTF-8 Plain Text
Duration : 55 min 57 s
Bit rate : 117 b/s
Count of elements : 1050
Stream size : 48.3 KiB (0%)
Title : Amedia
Language : Russian
Default : No
Forced : No
Text #3
ID : 6
Format : UTF-8
Codec ID : S_TEXT/UTF8
Codec ID/Info : UTF-8 Plain Text
Duration : 59 min 42 s
Bit rate : 92 b/s
Count of elements : 1223
Stream size : 40.4 KiB (0%)
Title : SDH
Language : English
Default : No
Forced : No

Release was prepared by RG Serials



If your ratio falls below 0.3, you will not be able to download Torrents! More about the rating.

[toptorrent.pw].t6138.torrent
Torrent: Registered [ 2019-10-10 10:14 ] · B59F554C0451288473AFA44A95AF61FCCE0499C7

Download .torrent

Download

111 KB

Status: T temporary
Completed: 0 times
Size: 21.87 GB
Rate: 
(Vote: 1)
Has thanked: 1  Thanks   (List)
terms.php
Display posts:    
Reply to topic

Current time is: 16-Oct 01:59

All times are UTC + 5



You cannot post new topics in this forum
You cannot reply to topics in this forum
You cannot edit your posts in this forum
You cannot delete your posts in this forum
You cannot vote in polls in this forum
You cannot attach files in this forum
You can download files in this forum