Детство Шелдона / Young Sheldon / Сезон 3 / Серии 1-2 из 22 (Джаффар Махмуд, Ховард Дойч, Марк Сендроуски) [2019, комедия, WEB-DL 1080p] VO (Кураж-Бомбей) + Original Eng + Sub Eng

Reply to topic

DL-List and Torrent activity
Size:  2.76 GB   |    Registered:  2 days 17 hours   |    Completed:  1 time
Seeders:  3  [  0 KB/s  ]   Leechers:  1  [  0 KB/s  ]   Show peers in full details
   
 
Author Message

.:Mercury:. ®

Gender: Male

Longevity: 1 year 8 months

Posts: 3567

Карма: 31947 [+]

Наличие запрета:

[Profile] [PM]

Post 03-Oct-2019 20:14

[Quote]

Детство Шелдона / Young Sheldon- -Год выпуска: 2019
Страна: США
Жанр: комедия
Продолжительность: ~00:21:00 серия
Перевод: Профессиональный (одноголосый) Кураж-Бомбей--Режиссер: Джаффар Махмуд, Ховард Дойч, Марк Сендроуски--В ролях: Иэн Армитедж (Sheldon), Зои Перри (Mary), Лэнс Барбер (George Sr.), Монтана Джордан (Georgie), Реган Реворд (Missy), Джим Парсонс (Sheldon), Энни Поттс (Meemaw), Ryan Phuong (Tam), Уайатт МакКлюр (Billy Sparks), Валери Махаффей (Ms. MacElroy), Мэтт Хобби (Pastor Jeff), Даниэль Пиннок (Ms. Ingram)--Описание: История о непростом детстве вундеркинда Шелдона Купера. Родители юного гения не разделяют увлечения сына наукой: его мать очень религиозна, а отец, бывший футбольный тренер, предпочитает проводить вечера в компании пива и телевизора. Со сверстниками тоже не ладится, ведь Шелдона куда больше детских игрушек интересует, где можно взять обогащённый уран для научных экспериментов.--Качество: WEB-DL 1080p
Формат: MKV
Видео кодек: H.264
Аудио кодек: AC3
Видео: MPEG4 Video (H264) 1920x1080 23.976fps 10 000 kb/s
Аудио: Dolby AC3 48000Hz 6ch 640kbps | Rus, Eng
Субтитры: English (SDH)
General
Unique ID : 253874370899182437850782317027075272068 (0xBEFE6CE0A39C45B4B95482CF73B7AD84)
Complete name : D:\Young_Sheldon_(s03)_KB_1080p\Young.Sheldon.2019.S03E01.Quirky.Eggheads.and.Texas.Snow.Globes.1080p.AMZN.WEB-DL.DD5.1.x264-NTb_EniaHD.mkv
Format : Matroska
Format version : Version 2
File size : 1.39 GiB
Duration : 19 min 25 s
Overall bit rate : 10.3 Mb/s
Encoded date : UTC 2019-10-02 18:23:03
Writing application : mkvmerge v4.9.1 ('Ich will') сборка от Jul 11 2011 23:53:15
Writing library : libebml v1.2.1 + libmatroska v1.1.1
Video
ID : 1
Format : AVC
Format/Info : Advanced Video Codec
Format profile : High@L4
Format settings : CABAC / 4 Ref Frames
Format settings, CABAC : Yes
Format settings, Reference fra : 4 frames
Codec ID : V_MPEG4/ISO/AVC
Duration : 19 min 25 s
Bit rate mode : Constant
Bit rate : 8 780 kb/s
Nominal bit rate : 10 000 kb/s
Width : 1 920 pixels
Height : 1 080 pixels
Display aspect ratio : 16:9
Frame rate mode : Constant
Frame rate : 23.976 (24000/1001) FPS
Color space : YUV
Chroma subsampling : 4:2:0
Bit depth : 8 bits
Scan type : Progressive
Bits/(Pixel*Frame) : 0.177
Stream size : 1.19 GiB (86%)
Title : Release by EniaHD
Default : Yes
Forced : No
Color range : Limited
Color primaries : BT.709
Transfer characteristics : BT.709
Matrix coefficients : BT.709
Audio #1
ID : 2
Format : AC-3
Format/Info : Audio Coding 3
Commercial name : Dolby Digital
Codec ID : A_AC3
Duration : 19 min 25 s
Bit rate mode : Constant
Bit rate : 640 kb/s
Channel(s) : 6 channels
Channel layout : L R C LFE Ls Rs
Sampling rate : 48.0 kHz
Frame rate : 31.250 FPS (1536 SPF)
Bit depth : 16 bits
Compression mode : Lossy
Stream size : 89.0 MiB (6%)
Title : Кураж-Бамбей
Language : Russian
Service kind : Complete Main
Default : Yes
Forced : No
Audio #2
ID : 3
Format : AC-3
Format/Info : Audio Coding 3
Commercial name : Dolby Digital
Codec ID : A_AC3
Duration : 19 min 25 s
Bit rate mode : Constant
Bit rate : 640 kb/s
Channel(s) : 6 channels
Channel layout : L R C LFE Ls Rs
Sampling rate : 48.0 kHz
Frame rate : 31.250 FPS (1536 SPF)
Bit depth : 16 bits
Compression mode : Lossy
Stream size : 89.0 MiB (6%)
Language : English
Service kind : Complete Main
Default : No
Forced : No
Text #1
ID : 4
Format : UTF-8
Codec ID : S_TEXT/UTF8
Codec ID/Info : UTF-8 Plain Text
Title : Full
Language : English
Default : No
Forced : No
Text #2
ID : 5
Format : UTF-8
Codec ID : S_TEXT/UTF8
Codec ID/Info : UTF-8 Plain Text
Title : SDH
Language : English
Default : No
Forced : No

Release was prepared by RG Serials


[toptorrent.pw].t6152.torrent
Torrent: Registered [ 2019-10-13 09:01 ] · 373D4113F71C32D0DC948FA111AE4A58BE4ED389

Download .torrent

Download

15 KB

Status: T temporary
Completed: 1 times
Size: 2.76 GB
Rate: 
(Vote: 1)
Has thanked: 1  Thanks   (List)
terms.php
Display posts:    
Reply to topic

Current time is: 16-Oct 02:39

All times are UTC + 5



You cannot post new topics in this forum
You cannot reply to topics in this forum
You cannot edit your posts in this forum
You cannot delete your posts in this forum
You cannot vote in polls in this forum
You cannot attach files in this forum
You can download files in this forum