ИП Пирогова / Сезон 2 / Серии 1-13 из 13 (Антон Маслов) [2019, Комедия, WEBRip-AVC]

Reply to topic

DL-List and Torrent activity
Size:  4.65 GB   |    Registered:  1 month 2 days   |    Completed:  0 times
Seeders:  3  [  0 KB/s  ]   Show peers in full details
   
 
Author Message

.:Mercury:. ®

Gender: Male

Longevity: 1 year 10 months

Posts: 3618

Карма: 31947 [+]

Наличие запрета:

[Profile] [PM]

Post 15-Oct-2019 12:07

[Quote]

ИП Пирогова- -Год выпуска: 2019
Страна: Россия
Жанр: Комедия
Продолжительность: ~ 00:25:00--Режиссер: Антон Маслов--В ролях: Елена Подкаминская, Александр Панкратов-Чёрный, Данила Дунаев, Ксения Теплова, Александр Константинов, Василина Юсковец, Елена Валюшкина--Описание: Освоив азы индивидуального предпринимательства, Вера Пирогова продолжает строить свой кондитерский бизнес. С маленькой домашней кухни она перебирается в собственное кафе-пекарню и, кажется, теперь до осуществления заветной мечты осталось совсем чуть-чуть. Однако двери кондитерской не успевают открыться, как Вере вновь приходится решать одну проблему за другой. Впрочем, шумная семья начинающей бизнес-леди всегда готова прийти на помощь. Как и Андрей – первая любовь Веры, который намерен заново покорить сердце предприимчивого кондитера. Это будет непросто, ведь Андрею придется конкурировать за внимание Веры не только с ее бизнесом, но и с мужем Димой, вернувшимся домой из СИЗО. Решится ли Вера дать второй шанс кому-то из мужчин?--Качество: WEBRip-AVC
Формат: MKV
Видео кодек: H.264
Аудио кодек: AC3
Видео: MPEG4 Video (H264) 1024x576 25fps 2 000 kb/s
Аудио: Dolby AC3 48000Hz stereo 192kbps 2ch
General
Unique ID : 246342172902235268097595475008629874383 (0xB953C6D82802D307AC8EF97041659ECF)
Complete name : D:\IP.Pirogova.S02.2019.WEB-DLRip.(AVC).ExKinoRay\IP.Pirogova.S02.E01.2019.WEB-DLRip.(AVC).ExKinoRay.mkv
Format : Matroska
Format version : Version 2
File size : 377 MiB
Duration : 24 min 0 s
Overall bit rate : 2 195 kb/s
Encoded date : UTC 2019-10-13 01:58:05
Writing application : mkvmerge v7.8.0 ('River Man') 32bit built on Apr 3 2015 12:11:22
Writing library : libebml v1.3.1 + libmatroska v1.4.2
Video
ID : 1
Format : AVC
Format/Info : Advanced Video Codec
Format profile : High@L4.1
Format settings : CABAC / 10 Ref Frames
Format settings, CABAC : Yes
Format settings, Reference fra : 10 frames
Codec ID : V_MPEG4/ISO/AVC
Duration : 24 min 0 s
Bit rate : 2 000 kb/s
Width : 1 024 pixels
Height : 576 pixels
Display aspect ratio : 16:9
Frame rate mode : Constant
Frame rate : 25.000 FPS
Color space : YUV
Chroma subsampling : 4:2:0
Bit depth : 8 bits
Scan type : Progressive
Bits/(Pixel*Frame) : 0.136
Stream size : 336 MiB (89%)
Writing library : x264 core 146 r2538 121396c
Encoding settings : cabac=1 / ref=10 / deblock=1:-3:-3 / analyse=0x3:0x113 / me=umh / subme=11 / psy=1 / psy_rd=1.00:0.20 / mixed_ref=1 / me_range=32 / chroma_me=1 / trellis=2 / 8x8dct=1 / cqm=0 / deadzone=21,11 / fast_pskip=1 / chroma_qp_offset=-3 / threads=24 / lookahead_threads=9 / sliced_threads=0 / nr=0 / decimate=0 / interlaced=0 / bluray_compat=0 / constrained_intra=0 / bframes=12 / b_pyramid=2 / b_adapt=2 / b_bias=0 / direct=3 / weightb=1 / open_gop=0 / weightp=2 / keyint=250 / keyint_min=25 / scenecut=40 / intra_refresh=0 / rc_lookahead=60 / rc=2pass / mbtree=1 / bitrate=2000 / ratetol=1.0 / qcomp=0.60 / qpmin=0 / qpmax=69 / qpstep=4 / cplxblur=20.0 / qblur=0.5 / vbv_maxrate=14000 / vbv_bufsize=14000 / nal_hrd=none / filler=0 / ip_ratio=1.40 / aq=3:1.40
Default : Yes
Forced : No
Color range : Limited
Color primaries : BT.709
Transfer characteristics : BT.709
Matrix coefficients : BT.709
Audio
ID : 2
Format : AC-3
Format/Info : Audio Coding 3
Commercial name : Dolby Digital
Codec ID : A_AC3
Duration : 24 min 0 s
Bit rate mode : Constant
Bit rate : 192 kb/s
Channel(s) : 2 channels
Channel layout : L R
Sampling rate : 48.0 kHz
Frame rate : 31.250 FPS (1536 SPF)
Compression mode : Lossy
Stream size : 33.0 MiB (9%)
Service kind : Complete Main
Default : Yes
Forced : No

Release was prepared by RG Serials



If your ratio falls below 0.3, you will not be able to download Torrents! More about the rating.

[toptorrent.pw].t6174.torrent
Torrent: Registered [ 2019-11-14 12:04 ] · AF59972434A70602F63332AAB7753C0E561274BA

Download .torrent

Download

95 KB

Status: checked
Completed: 0 times
Size: 4.65 GB
Rate: 
(Vote: 2)
Has thanked: 3  Thanks   (List)
terms.php
Display posts:    
Reply to topic

Current time is: 16-Dec 17:31

All times are UTC + 5



You cannot post new topics in this forum
You cannot reply to topics in this forum
You cannot edit your posts in this forum
You cannot delete your posts in this forum
You cannot vote in polls in this forum
You cannot attach files in this forum
You can download files in this forum