Видеть / See / Сезон 1 / Серии 1-8 из 8 (Фрэнсис Лоуренс, Андерс Энгстрем, Стивен Серджик) [2019, Драма, Фантастика, WEB-DL 1080p] MVO (LostFilm) + Original Eng

Reply to topic

DL-List and Torrent activity
Size:  22.97 GB   |    Registered:  2 months 7 days   |    Completed:  0 times
Seeders:  4  [  0 KB/s  ]   Show peers in full details
   
 
Author Message

.:Mercury:. ®

Gender: Male

Longevity: 2 years

Posts: 3659

Карма: 31947 [+]

Наличие запрета:

[Profile] [PM]

Post 05-Nov-2019 02:40

[Quote]

Видеть / See- - -Год выпуска: 2019
Страна: США
Жанр: Драма, Фантастика
Продолжительность: 1 x 00:58:00
Перевод: Профессиональный (многоголосый, закадровый) LostFilm--Режиссер: Фрэнсис Лоуренс, Андерс Энгстрем, Стивен Серджик--В ролях: В далёком будущем человеческая раса полностью лишилась зрения. Чтобы выжить, людям пришлось найти новый способ сосуществовать, строить и добывать пищу. Всё меняется, когда в семье бесстрашного воина Бабы Восса рождаются зрячие близнецы. Их появление рискует нарушить хрупкий баланс нового мира и ввергнуть успокоившуюся цивилизацию в хаос.--Описание: После того как эпидемия страшного вируса сократила население Земли до двух миллионов человек, а тех, кто выжил, лишила зрения, люди регрессировали до жизни в пещерах, языческих обрядов, охоты и собирательства. Зрение стало мифом, а любые разговоры о нем начали считаться ересью. Племена сражаются друг с другом, воздух в живописных лесах и заснеженных горах пропитан опасностью, охота на ведьм стала делом обыденным, а ценность человеческой жизни теперь понятие относительное. Однако и в таких суровых условиях люди продолжают любить и рожать детей. Главе племени охотников Бабе Воссу (Джейсон Момоа) повезло — у него родились сразу двое малышей. И оба, как назло, зрячие. Когда о такой ужасной аномалии, ставящей под угрозу все существование нового мира, узнает королева Кейн (Сильвия Хукс), поиски этой «злой силы света» становится ее целью, для достижения которой поборники «правильных» взглядов не остановятся ни перед чем. Тем временем Баба Восс со своей женой, детьми и группой отщепенцев отправляются на поиски еретика Джерламарела (Джошуа Генри), который, по слухам, обладает особым даром. Успеют ли они найти своего спасителя до того, как приспешники королевы их настигнут, и чем закончится противостояние «официальной власти» и верящей в силу света «оппозиции», если стороны схлестнутся в открытой схватке?--Доп. информация: «Видеть» — это высокобюджетная постапокалиптическая драма потокового сервиса Apple TV+, отвечающая вкусам самой требовательной аудитории. Ее создателем выступил британский фильммейкер Стивен Найт, хорошо знакомый сериаломанам по гангстерской саге «Острые козырьки» и мистической драме «Табу». А съемки пилота возглавил Френсис Лоуренс, вдоль и поперек изучивший мир дистопического будущего по успешной франшизе «Голодные игры». Вместе с героями сериала «Видеть» мы переносимся на столетия вперед и знакомимся с выжившими после эпидемии остатками человечества, чьи моральные устои и уклад жизни могут повергнуть современного зрителя в глубокий шок. Кроме того, все сюжетные перипетии разворачиваются на фоне роскошных природных локаций, а главные герои шоу могут похвастаться отменной физической силой, собственной любопытной философией и непобедимой силой духа. А еще все они абсолютно слепые, что придает шоу изюминку и выделяет его на фоне похожих проектов. Главную роль в драме «Видеть» исполнил звезда «Аквамена» и «Игры престолов» Джейсон Момоа.--Качество: WEB-DL 1080p
Формат: MKV
Видео кодек: H.264
Аудио кодек: AC3
Видео: MPEG4 Video (H264) 1920x1080 23.976fps 6 800 kb/s
Аудио: Dolby AC3 48000Hz stereo 384kbps 2ch | Rus, Eng
General
Unique ID : 226601145370201867171376917320115009872 (0xAA79CB0A92DD4068B400CA52FFD1B950)
Complete name : D:\Видеть. 1 сезон. 1080p WEB-DLRip (LostFilm)\See.S01E01.1080p.rus.LostFilm.TV.mkv
Format : Matroska
Format version : Version 4
File size : 3.05 GiB
Duration : 57 min 39 s
Overall bit rate : 7 569 kb/s
Encoded date : UTC 2019-11-04 17:45:36
Writing application : mkvmerge v9.5.0 ('Quiet Fire') 64bit
Writing library : libebml v1.3.4 + libmatroska v1.4.5
Video
ID : 1
Format : AVC
Format/Info : Advanced Video Codec
Format profile : High@L4.1
Format settings : CABAC / 4 Ref Frames
Format settings, CABAC : Yes
Format settings, Reference fra : 4 frames
Codec ID : V_MPEG4/ISO/AVC
Duration : 57 min 39 s
Bit rate : 6 800 kb/s
Width : 1 920 pixels
Height : 1 080 pixels
Display aspect ratio : 16:9
Frame rate mode : Constant
Frame rate : 23.976 (24000/1001) FPS
Original frame rate : 23.976 (23976/1000) FPS
Color space : YUV
Chroma subsampling : 4:2:0
Bit depth : 8 bits
Scan type : Progressive
Bits/(Pixel*Frame) : 0.137
Stream size : 2.74 GiB (90%)
Writing library : x264 core 112 r1834 a51816a
Encoding settings : cabac=1 / ref=4 / deblock=1:-3:-2 / analyse=0x3:0x113 / me=hex / subme=7 / psy=1 / psy_rd=1.00:0.00 / mixed_ref=1 / me_range=16 / chroma_me=1 / trellis=1 / 8x8dct=1 / cqm=0 / deadzone=21,11 / fast_pskip=1 / chroma_qp_offset=-2 / threads=6 / sliced_threads=0 / nr=0 / decimate=1 / interlaced=0 / constrained_intra=0 / bframes=5 / b_pyramid=2 / b_adapt=1 / b_bias=0 / direct=1 / weightb=1 / open_gop=0 / weightp=2 / keyint=250 / keyint_min=25 / scenecut=40 / intra_refresh=0 / rc_lookahead=40 / rc=2pass / mbtree=1 / bitrate=6800 / ratetol=1.0 / qcomp=0.60 / qpmin=0 / qpmax=51 / qpstep=4 / cplxblur=20.0 / qblur=0.5 / vbv_maxrate=10000 / vbv_bufsize=256000 / ip_ratio=1.40 / aq=1:1.00 / nal_hrd=none
Default : Yes
Forced : No
Audio #1
ID : 2
Format : AC-3
Format/Info : Audio Coding 3
Commercial name : Dolby Digital
Codec ID : A_AC3
Duration : 57 min 39 s
Bit rate mode : Constant
Bit rate : 384 kb/s
Channel(s) : 2 channels
Channel layout : L R
Sampling rate : 48.0 kHz
Frame rate : 31.250 FPS (1536 SPF)
Compression mode : Lossy
Stream size : 158 MiB (5%)
Service kind : Complete Main
Default : Yes
Forced : No
Audio #2
ID : 3
Format : AC-3
Format/Info : Audio Coding 3
Commercial name : Dolby Digital
Codec ID : A_AC3
Duration : 57 min 39 s
Bit rate mode : Constant
Bit rate : 384 kb/s
Channel(s) : 2 channels
Channel layout : L R
Sampling rate : 48.0 kHz
Frame rate : 31.250 FPS (1536 SPF)
Compression mode : Lossy
Stream size : 158 MiB (5%)
Service kind : Complete Main
Default : No
Forced : No

Release was prepared by RG Serials



If your ratio falls below 0.3, you will not be able to download Torrents! More about the rating.

[toptorrent.pw].t6217.torrent
Torrent: Registered [ 2019-12-10 00:52 ] · 400FA75B4A4C3C8DBE5CB8D46C2A24054798F931

Download .torrent

Download

116 KB

Status: checked
Completed: 0 times
Size: 22.97 GB
Rate: 
(Vote: 0)
Has thanked: 1  Thanks   (List)
terms.php
Display posts:    
Reply to topic

Current time is: 17-Feb 18:17

All times are UTC + 5



You cannot post new topics in this forum
You cannot reply to topics in this forum
You cannot edit your posts in this forum
You cannot delete your posts in this forum
You cannot vote in polls in this forum
You cannot attach files in this forum
You can download files in this forum