Царство Волги / Realm of the Volga / Серии 1-2 из 2 (Дэн Уэскер) [2019, Документальный, HDTV 1080] VO (NewStudio)

Reply to topic

DL-List and Torrent activity
Size:  3.97 GB   |    Registered:  3 months 12 days   |    Completed:  1 time
Seeders:  6  [  0 KB/s  ]   Show peers in full details
   
 
Author Message

.:Mercury:. ®

Gender: Male

Longevity: 2 years 2 months

Posts: 3667

Карма: 31947 [+]

Наличие запрета:

[Profile] [PM]

Post 23-Dec-2019 09:12

[Quote]

Царство Волги / Realm of the Volga- -Год выпуска: 2019
Страна: США
Жанр: Документальный
Продолжительность: ~00:52:00
Перевод: Профессиональный (Одноголосый, закадровый) NewStudio--Режиссер: Дэн Уэскер--Рассказчик: Дэн Уэскер--Описание: В потрясающем разнообразии ландшафтов и видов, пересекая центральную Россию, на протяжении более чем 3500 километров, течет Волга.--Качество: HDTV 1080p
Формат: MKV
Видео кодек: H.264
Аудио кодек: AC3
Видео: MPEG4 Video (H264) 1920x1080 29.97fps 4 500 kb/s
Аудио: olby AC3 48000Hz stereo 224kbps 2ch
Часть первая: Рождение реки
Волга проходит по большей части восточной Европы. Её бассейн занимает территорию большую чем Франция, Испания и Португалия вместе взятые. Её источники, богатый снегом север России, превращает её в непреодолимую силу.
Часть вторая: Река становится морем
Все главные реки планеты впадают в океан. Кроме одной, могучей Волги. После путешествия длинной более 3500 километров, Волга впадает в Каспийское море.
General
Unique ID : 315615884905263589693074270006775055736 (0xED71688AB229D12F1F391ACE621F0578)
Complete name : F:\Restored\Realm.of.the.Volga.s01.HDTV.1080p.NewStudio.TV\Realm.of.the.Volga.s01e01.HDTV.1080p.NewStudio.TV.mkv
Format : Matroska
Format version : Version 4
File size : 1.71 GiB
Duration : 52 min 11 s
Overall bit rate : 4 705 kb/s
Encoded date : UTC 2019-12-22 19:06:20
Writing application : mkvmerge v31.0.0 ('Dolores In A Shoestand') 64-bit
Writing library : libebml v1.3.6 + libmatroska v1.4.9
Video
ID : 1
Format : AVC
Format/Info : Advanced Video Codec
Format profile : High@L4.1
Format settings : CABAC / 4 Ref Frames
Format settings, CABAC : Yes
Format settings, Reference fra : 4 frames
Codec ID : V_MPEG4/ISO/AVC
Duration : 52 min 8 s
Bit rate : 4 500 kb/s
Width : 1 920 pixels
Height : 1 080 pixels
Display aspect ratio : 16:9
Frame rate mode : Constant
Frame rate : 29.970 (30000/1001) FPS
Color space : YUV
Chroma subsampling : 4:2:0
Bit depth : 8 bits
Scan type : Progressive
Bits/(Pixel*Frame) : 0.072
Stream size : 1.63 GiB (95%)
Writing library : x264 core 130 r2273 b3065e6
Encoding settings : cabac=1 / ref=1 / deblock=1:0:0 / analyse=0x3:0x113 / me=hex / subme=2 / psy=1 / psy_rd=1.00:0.00 / mixed_ref=0 / me_range=16 / chroma_me=1 / trellis=0 / 8x8dct=1 / cqm=0 / deadzone=21,11 / fast_pskip=1 / chroma_qp_offset=0 / threads=6 / lookahead_threads=2 / sliced_threads=0 / nr=0 / decimate=1 / interlaced=0 / bluray_compat=0 / constrained_intra=0 / bframes=3 / b_pyramid=2 / b_adapt=1 / b_bias=0 / direct=1 / weightb=1 / open_gop=0 / weightp=1 / keyint=300 / keyint_min=30 / scenecut=40 / intra_refresh=0 / rc_lookahead=10 / rc=abr / mbtree=1 / bitrate=4500 / ratetol=1.0 / qcomp=0.60 / qpmin=0 / qpmax=69 / qpstep=4 / vbv_maxrate=62500 / vbv_bufsize=78125 / nal_hrd=none / ip_ratio=1.40 / aq=1:1.00
Default : Yes
Forced : No
Color range : Limited
Color primaries : BT.709
Transfer characteristics : BT.709
Matrix coefficients : BT.709
Audio
ID : 2
Format : AC-3
Format/Info : Audio Coding 3
Commercial name : Dolby Digital
Codec ID : A_AC3
Duration : 52 min 11 s
Bit rate mode : Constant
Bit rate : 224 kb/s
Channel(s) : 2 channels
Channel layout : L R
Sampling rate : 48.0 kHz
Frame rate : 31.250 FPS (1536 SPF)
Compression mode : Lossy
Stream size : 83.6 MiB (5%)
Language : Russian
Service kind : Complete Main
Default : Yes
Forced : No


If your ratio falls below 0.3, you will not be able to download Torrents! More about the rating.

[toptorrent.pw].t6288.torrent
Torrent: Registered [ 2019-12-23 09:12 ] · 57B2206832CC5C9FE108769D437A671F7ABC1EF7

Download .torrent

Download

21 KB

Status: checked
Completed: 1 times
Size: 3.97 GB
Rate: 
(Vote: 0)
Has thanked: 0  Thanks
terms.php
Display posts:    
Reply to topic

Current time is: 04-Apr 20:54

All times are UTC + 5



You cannot post new topics in this forum
You cannot reply to topics in this forum
You cannot edit your posts in this forum
You cannot delete your posts in this forum
You cannot vote in polls in this forum
You cannot attach files in this forum
You can download files in this forum